<?xml version="1.0" standalone="no"?>
<!DOCTYPE svg PUBLIC "-//W3C//DTD SVG 1.1//EN" "http://www.w3.org/Graphics/SVG/1.1/DTD/svg11.dtd" >
<svg>
<metadata>
Created by FontForge 20090622 at Wed Aug 17 21:12:44 2016
 By deploy user
Copyright (c) 2008 by William Veder &#38; Sebastian Kempgen. All rights reserved.
</metadata>
<defs>
<font id="Bukyvede" horiz-adv-x="0" >
  <font-face 
    font-family="Bukyvede"
    font-weight="400"
    font-stretch="normal"
    units-per-em="1000"
    panose-1="2 0 4 0 0 0 0 0 0 0"
    ascent="800"
    descent="-200"
    x-height="458"
    cap-height="679"
    bbox="-873 -425 1093 972.09"
    underline-thickness="49"
    underline-position="-85"
    unicode-range="U+000D-U+FE2F"
  />
<missing-glyph horiz-adv-x="500" 
d="M62 0v891h375v-891h-375zM125 62h250v767h-250v-767z" />
    <glyph glyph-name="Psilivariacombcyr" unicode="&#x486;&#x300;" 
d="M-341 494q93 49 93 106q0 45 -77 45h-17v34q29 7 63 7q85 0 85 -56q0 -44 -28 -74q-14 -16 -60 -40q-21 -11 -35.5 -22t-22.5 -21zM-128 687l72 -215h-25l-103 169q0 16 7 29q8 17 22 17h27z" />
    <glyph glyph-name="Psilioxiacombcyr" unicode="&#x486;&#x301;" 
d="M-292 494q94 49 94 106q0 45 -77 45h-17v34q29 7 63 7q84 0 84 -56q0 -46 -27 -74q-14 -16 -60 -40q-42 -23 -58 -43zM-64 692q30 0 30 -46l-104 -169h-25l73 215h26z" />
    <glyph glyph-name="Dasiavariacombcyr" unicode="&#x485;&#x300;" 
d="M-170 473q-16 20 -58 43q-46 24 -60 40q-27 28 -27 74q0 56 84 56q34 0 63 -7v-34h-17q-77 0 -77 -45q0 -57 94 -106zM-96 687l73 -215h-26l-103 169q0 13 7 29q9 17 23 17h26z" />
    <glyph glyph-name="Dasiaoxiacombcyr" unicode="&#x485;&#x301;" 
d="M-178 473q-8 10 -22.5 21t-35.5 22q-46 24 -60 40q-28 30 -28 74q0 56 85 56q34 0 63 -7v-34h-17q-77 0 -77 -45q0 -57 93 -106zM-52 683q29 0 29 -45l-103 -170h-25l72 215h27z" />
    <glyph glyph-name=".notdef" horiz-adv-x="500" 
d="M62 0v891h375v-891h-375zM125 62h250v767h-250v-767z" />
    <glyph glyph-name="nonmarkingreturn" unicode="&#xd;" horiz-adv-x="250" 
 />
    <glyph glyph-name="space" unicode=" " horiz-adv-x="250" 
 />
    <glyph glyph-name="exclam" unicode="!" horiz-adv-x="232" 
d="M161 196q0 -11 -15 -18.5t-35 -7.5t-34.5 7.5t-14.5 18.5v458q0 12 14.5 19.5t34.5 7.5t35 -7.5t15 -18.5v-459zM62 84q0 12 14.5 20t34.5 8t35 -8t15 -19v-70q0 -11 -15 -18t-35 -7t-34.5 7t-14.5 19v68z" />
    <glyph glyph-name="quotedbl" unicode="&#x22;" horiz-adv-x="328" 
d="M44 659q0 12 13 19t30 7q18 0 30.5 -7t12.5 -18v-145q0 -5 -5 -16t-14 -22t-22 -19.5t-29 -8.5t-16 14v196zM199 659q0 12 13 19t31 7q17 0 30 -7t13 -18v-145q0 -6 -5.5 -17t-14.5 -22t-22 -19t-28 -8q-17 0 -17 14v196z" />
    <glyph glyph-name="numbersign" unicode="#" horiz-adv-x="607" 
d="M583 271q1 -2 1 -9t-0.5 -15.5t-1.5 -17t-1 -13.5q-3 -20 -5.5 -31t-5 -16.5t-5.5 -7t-7 -1.5q-5 0 -10.5 6t-10.5 17q-8 15 -16 23t-17 11.5t-18.5 4t-21.5 0.5h-60l-32.5 -153t-13.5 -60q-2 -8 -12 -12t-21.5 -4t-20.5 4t-7 12q1 3 13.5 61l32.5 152h-109l-32.5 -153
t-13.5 -60q-2 -8 -12 -12t-21.5 -4t-20.5 4t-7 12q1 3 13.5 61l32.5 152h-164q-8 0 -10 9.5t0 20.5t8 20.5t14 9.5h164l11.5 52l11.5 52h-164q-8 0 -10 9t0 20t7.5 20t13.5 9h164l18.5 86.5l14.5 68t10 44.5t4 18q1 7 11.5 11.5t22 4.5t20.5 -4t7 -12q0 -1 -3.5 -17l-10 -45
l-15 -68.5l-18.5 -86.5h109l18.5 86.5l14.5 68t10 44.5t4 18q1 7 11.5 11.5t22 4.5t20.5 -4t7 -12q0 -1 -3.5 -17l-10 -45l-15 -68.5l-18.5 -86.5h136q23 0 31 -11q1 -2 1 -8.5t-0.5 -14.5t-1.5 -16.5t-1 -13.5q-2 -20 -4.5 -31t-5.5 -16.5t-6 -7t-7 -1.5q-10 0 -21 23
q-15 30 -32 34.5t-40 4.5h-60l-11.5 -52l-11.5 -52h136q25 0 31 -11zM355 282l11.5 52l11.5 52h-109l-11.5 -52l-11.5 -52h109z" />
    <glyph glyph-name="dollar" unicode="$" horiz-adv-x="528" 
d="M238 19q-30 8 -51 17t-35 9q-12 0 -22.5 -10t-20 -22.5t-19.5 -22.5t-22 -10q-45 0 -45 25q0 48 40 83q20 16 40.5 20.5t43.5 4.5q1 0 10.5 -4t22.5 -10.5l28.5 -14t29.5 -13.5v253q-6 0 -9 1l-53 8q-31 6 -50 17q-66 40 -66 143q0 166 178 172v78h42v-79
q177 -14 177 -169q0 -31 -40 -31q-17 0 -27.5 2.5t-17 8t-10.5 14t-8 20.5l-6 40t-7 41q-5 15 -21.5 25t-39.5 15v-268q35 -4 65 -12.5t55 -23.5q40 -24 60.5 -50t20.5 -74q0 -94 -39 -144t-118 -50q-25 0 -44 3v-92h-42v100zM338 293q-17 14 -58 23v-260q28 0 46.5 11
t29.5 26q19 26 19 87q0 85 -37 113zM163 501q0 -58 18.5 -96.5t56.5 -40.5v269q-40 -1 -60 -45q-8 -18 -11.5 -39.5t-3.5 -47.5z" />
    <glyph glyph-name="percent" unicode="%" horiz-adv-x="512" 
d="M55 -14q-4 -6 -13 -6.5t-17.5 3t-14 9.5t-1.5 14q2 3 20 33l46.5 77l64 105.5l71.5 118.5l193 319q11 21 26 24q5 1 20 -2t25 -8q18 -8 28 -13.5t14 -9.5t4 -7t-2 -6q-5 -10 -33 -13q-19 -2 -30.5 -6.5t-19 -11t-12.5 -15l-11 -18.5l-15 -24l-39 -63.5l-55.5 -90.5
l-64 -104.5l-64.5 -105.5l-57.5 -94.5l-42.5 -70.5t-20 -34zM287 24q-18 18 -27 40.5t-9 46.5t9 47t27 41t41 27t47 9t47 -9t42 -27q18 -18 26.5 -41t8.5 -47t-8.5 -46.5t-26.5 -40.5q-19 -18 -42 -27t-47 -9t-47 9t-41 27zM329 64q20 -19 47 -19t46 19q20 20 20 46.5
t-20 46.5q-19 19 -46 19t-47 -19q-19 -20 -19 -46.5t19 -46.5zM37 478q-18 18 -27 40.5t-9 46.5t9 47t27 41t41 27t47 9t47 -9t42 -27q18 -18 26.5 -41t8.5 -47t-8.5 -46.5t-26.5 -40.5q-19 -18 -42 -27t-47 -9t-47 9t-41 27zM79 518q20 -19 47 -19t46 19q20 20 20 46.5
t-20 46.5q-19 19 -46 19t-47 -19q-19 -20 -19 -46.5t19 -46.5z" />
    <glyph glyph-name="ampersand" unicode="&#x26;" horiz-adv-x="517" 
d="M360 272v-269q0 -10 -2 -14.5t-24 -4.5q-45 0 -45 19v162l-21.5 -21.5t-20.5 -18.5q-41 -35 -74 -35q-47 0 -92 104q-38 91 -38 148q0 64 60 141q62 80 125 80q20 0 44 -33q25 -32 25 -53q0 -23 -18 -45q-9 -11 -12.5 -9.5t-14.5 0.5q-14 23 -21.5 33.5t-9.5 12.5
q-6 8 -13.5 11.5t-15 5t-14.5 1t-11 -0.5q-20 0 -32 -35q-3 -13 -10 -25.5t-7 -26.5q0 -30 2.5 -48t7.5 -32h161v81q6 15 14 30.5t17 27.5t17 17.5t14 1.5q3 -2 6 -17.5t3 -23.5v-117h113q14 -25 0 -47h-113zM209 172q14 0 38 9t42 20v71h-146q3 -13 6 -28t14 -32
q21 -40 46 -40z" />
    <glyph glyph-name="quotesingle" unicode="'" horiz-adv-x="232" 
d="M74 659q0 12 13 19t30 7q18 0 30.5 -7t12.5 -18v-145q0 -5 -5 -16t-14 -22t-22 -19.5t-29 -8.5t-16 14v196z" />
    <glyph glyph-name="parenleft" unicode="(" horiz-adv-x="364" 
d="M272 691q2 0 8 -4.5t12 -11.5t10.5 -15t4.5 -15q0 -5 -14 -11.5t-28 -17.5q-42 -35 -75 -72.5t-55.5 -83t-34 -100t-11.5 -121.5q0 -30 9.5 -60t25 -57t36 -50.5t43.5 -40.5q21 -15 33.5 -21.5t19.5 -9t9.5 -2.5t2.5 -2q0 -4 -4 -11t-6 -7q-9 1 -30.5 9t-48.5 25.5
t-55.5 45.5t-52 67.5t-39 92.5t-15.5 120q0 64 17.5 115.5t44.5 90.5t59 67t60 46t48.5 26t25.5 8z" />
    <glyph glyph-name="parenright" unicode=")" horiz-adv-x="364" 
d="M64 36q104 46 157.5 139.5t53.5 251.5q0 31 -9 61.5t-25 57.5t-36.5 49.5t-43.5 39.5q-21 15 -34 22t-20.5 9.5t-10.5 3t-3 2.5q0 3 5.5 9.5t7.5 6.5q9 -1 30.5 -9t48.5 -25.5t55.5 -45t52 -67.5t39 -93t15.5 -120q0 -64 -17.5 -114.5t-44.5 -89t-58.5 -65t-59.5 -43.5
t-49 -24.5t-25 -7.5q-3 0 -9 5t-11.5 12t-9.5 15t-4 14q0 5 5 6z" />
    <glyph glyph-name="Asterisk" unicode="*" horiz-adv-x="352" 
d="M328 419q6 -6 4.5 -13.5t-7 -12.5t-13 -6.5t-13.5 3.5l-93 93v-88q0 -8 -8 -12t-17 -4t-17 4t-8 12v89l-63.5 -64l-30.5 -30q-5 -5 -12.5 -3.5t-13 6.5t-7 12.5t4.5 13.5l113 113l-40.5 41l-35.5 36l-26 25.5l-12 11.5q-5 5 -3.5 12.5t6.5 13t12.5 7.5t13.5 -4
q1 -1 8.5 -9l20.5 -21l29.5 -29.5l35.5 -34.5v88q0 8 8 12t17 4.5t17 -3.5t8 -13v-88l35.5 34.5l29.5 29.5l20.5 21t8.5 9q6 6 13 4t12 -7.5t7 -13t-4 -12.5l-114 -114l42 -41l35.5 -36t25.5 -25.5z" />
    <glyph glyph-name="plus" unicode="+" horiz-adv-x="446" 
d="M437 212q2 -20 2 -31t-1.5 -16t-4.5 -6.5t-7 -1.5q-10 0 -27 23q-11 15 -20 23t-18.5 11.5t-19.5 4t-22 0.5h-75v-186q0 -8 -9 -12t-19.5 -4t-19 4t-8.5 12v186h-164q-8 0 -12 8.5t-4 19t4 19t12 8.5h164v158q0 7 8.5 11.5t19 4.5t19.5 -4t9 -12v-158h151q11 0 19.5 -3
t13.5 -8q3 -4 5 -22t4 -29z" />
    <glyph glyph-name="comma" unicode="," horiz-adv-x="181" 
d="M78 83q5 22 39 22q18 0 29 -7t8 -18l-30 -145q-1 -5 -7 -15.5t-15.5 -21t-22.5 -18t-29 -7.5t-13 14z" />
    <glyph glyph-name="hyphen" unicode="-" horiz-adv-x="454" 
d="M437 212q2 -20 2 -31t-1.5 -16t-4.5 -6.5t-7 -1.5q-10 0 -27 23q-11 15 -20 23t-18.5 11.5t-19.5 4t-22 0.5h-121h-174q-8 0 -12 8.5t-4 19t4 19t12 8.5h371q11 0 19.5 -3t13.5 -8q3 -4 5 -22t4 -29z" />
    <glyph glyph-name="period" unicode="." horiz-adv-x="160" 
d="M40 65q0 12 15 19t35 7t34.5 -7t14.5 -18v-60q0 -11 -14.5 -18.5t-34.5 -7.5t-35 7.5t-15 19.5v58z" />
    <glyph glyph-name="slash" unicode="/" horiz-adv-x="394" 
d="M-4 -16q-4 -6 -13 -6.5t-17.5 3t-14 9.5t-1.5 14q2 3 18.5 33l43 77l59 105.5l65.5 119.5l177 321q11 21 26 24q5 1 20 -2t25 -8q18 -8 28 -13.5t14 -9.5t4 -7t-2 -6q-5 -10 -33 -13q-19 -2 -30 -6t-18.5 -10.5t-12 -15t-10.5 -18.5l-13.5 -24.5l-36 -64l-50.5 -90.5
l-58 -105l-59.5 -106.5l-53 -95l-39 -71t-18.5 -34.5z" />
    <glyph glyph-name="zero" unicode="0" horiz-adv-x="500" 
d="M261 -5q-5 0 -25.5 7t-48.5 22.5t-59.5 41t-58.5 62.5t-44.5 86.5t-17.5 114.5q0 67 15.5 119.5t39 92.5t52 68.5t55.5 46t48.5 25.5t30.5 8q4 0 24 -6t47 -20.5t57.5 -39t56.5 -61.5t43 -88t17 -118q0 -71 -16 -125t-40.5 -94t-53.5 -67t-54.5 -43.5t-44.5 -24t-23 -7.5
zM309 65q13 2 29 13.5t31.5 28t28.5 36.5t19 38q6 17 8.5 34t2.5 34q0 47 -16 93t-40.5 88.5t-53.5 79t-55 63.5t-44.5 42.5t-22.5 15.5q-12 -2 -27 -14.5t-30 -30t-27.5 -37.5t-18.5 -38q-13 -38 -13 -78q0 -48 16 -93.5t40.5 -86.5t53 -75.5t54 -59.5t43.5 -39t22 -14z
" />
    <glyph glyph-name="one" unicode="1" horiz-adv-x="500" 
d="M200 646q0 17 14 26.5t39 9.5t35.5 -9t10.5 -26v-621q0 -17 -10.5 -26t-35.5 -9t-39 9.5t-14 27.5v618z" />
    <glyph glyph-name="two" unicode="2" horiz-adv-x="500" 
d="M431 -7q1 -10 1.5 -17.5t0.5 -12.5q0 -17 -4 -21t-9 -4q-10 0 -27 23q-11 15 -20.5 23t-19 11.5t-19 4t-21.5 0.5h-215q-11 0 -13.5 7.5t-2.5 20.5q0 6 1 11.5t4 9.5q7 33 26 77.5t41.5 86.5t44 76.5t33.5 48.5q21 24 42 51t39 53t31 48.5t19 38.5q0 7 -11 22t-25.5 30
t-29 26.5t-21.5 11.5q-1 0 -13 -3t-30.5 -12.5t-41.5 -29t-45 -52.5q-11 -13 -16 -26.5t-8 -25t-4 -18.5t-4 -7q-4 0 -12 9t-16 21.5t-14 26t-6 22.5q0 8 2 16q1 4 3 7q25 44 54 70.5t55.5 41t46.5 19t26 4.5q9 0 27 -4.5t41.5 -19t49.5 -40t52 -67.5q2 -6 5 -12
q2 -6 3.5 -13.5t1.5 -17.5q0 -15 -7 -35t-19.5 -42.5t-29 -46.5t-35.5 -46l-42 -52.5t-41.5 -62t-35 -71t-22.5 -77.5h158q31 0 49 -25.5t23 -56.5z" />
    <glyph glyph-name="three" unicode="3" horiz-adv-x="500" 
d="M471 168q0 -34 -12.5 -64.5t-36.5 -54t-60 -37t-84 -13.5q-2 0 -16 3t-33 6t-37.5 3t-28.5 -6q-29 -18 -49 -25.5t-33 -7.5q-15 0 -21 8.5t-6 19.5q0 85 85 85q6 0 18 -6l26.5 -13.5t28 -13.5t22.5 -6q57 0 92 32t35 92q0 16 -5 33.5t-13 33.5t-18 29t-20 21
q-25 18 -78 27q-26 4 -39 9t-18.5 10t-5.5 11v13q0 23 13.5 30.5t47.5 7.5q60 0 88 37t28 96q0 66 -22.5 92t-75.5 26q-84 0 -105 -112l-4 -16t-8 -14.5t-18 -10.5t-32 -4q-48 0 -48 27q0 36 17 67.5t46 54.5t67 36t79 13q98 0 151 -40.5t53 -121.5q0 -62 -24 -105.5
t-82 -71.5q60 -23 98 -68t38 -112z" />
    <glyph glyph-name="four" unicode="4" horiz-adv-x="500" 
d="M430 15q-11 -9 -21 -18.5t-31 -9.5q-20 0 -34.5 7t-14.5 21v295q-17 -2 -52.5 -3t-75 -1t-76.5 1t-58 3v40q19 72 48 130.5t59.5 102t59 71t46.5 39.5q3 1 11 -4t16 -12.5t13 -15t1 -10.5q-12 -10 -34.5 -39.5t-46.5 -71t-45.5 -90t-31.5 -96.5q28 -3 57 -4q25 -1 54 -1
t55 3v124q0 17 31 17h39q33 0 33 -17z" />
    <glyph glyph-name="five" unicode="5" horiz-adv-x="500" 
d="M96 362q3 28 10 66.5l15.5 81.5l16.5 87t12 84h121t133 -2h24.5t15.5 -5.5t8 -17.5t2 -36q0 -26 -1.5 -41t-4.5 -22.5t-7 -9.5t-9 -2h-10q-11 0 -18 16.5t-19.5 35.5t-37 34.5t-71.5 12.5l-34 -2l-46 -242q51 2 98 -4t83 -26.5t58 -57.5t22 -96q0 -49 -10 -90.5
t-30 -71.5t-50 -46.5t-70 -16.5q-52 0 -98.5 5t-81 18.5t-54.5 35.5t-20 57q0 11 15 21.5t29 10.5q30 0 46 -7t25.5 -18t15 -23t13 -23t21.5 -18t40 -7q51 0 76 42t25 108q0 41 -2.5 71t-14.5 50.5t-38 32t-73 14.5z" />
    <glyph glyph-name="six" unicode="6" horiz-adv-x="500" 
d="M60 221q9 125 51.5 230t108.5 184q46 54 72 53q8 -1 10 -3t4 -13q1 -6 -5 -16.5t-15 -23.5l-19.5 -28t-19.5 -30q-8 -16 -18.5 -34.5l-21.5 -38t-20 -41t-13 -43.5q22 20 52.5 27.5t52.5 5.5q35 -3 65.5 -28t52 -61t33 -76t9.5 -72q-3 -44 -20.5 -85.5t-46.5 -74t-69 -51
t-88 -15.5q-41 2 -71.5 23.5t-50 54.5t-28 74t-5.5 82zM156 317q-3 -16 -4 -38t-1.5 -44.5t0.5 -43t3 -33.5q3 -21 17 -38.5t32 -31t38 -21.5t36 -9q10 -1 20.5 8t19 25.5t14.5 40t8 50.5q2 24 -4 58t-20 66t-36.5 55.5t-52.5 25.5q-28 2 -45.5 -14t-24.5 -56z" />
    <glyph glyph-name="seven" unicode="7" horiz-adv-x="500" 
d="M418 369q9 -2 12.5 -10t2 -18t-8 -17.5t-16.5 -7.5h-72q-25 -90 -61.5 -170.5t-78.5 -132.5q-20 -25 -41 -37t-32 -11q-7 0 -9.5 4t-0.5 9q4 4 10 14l15 25q23 41 39.5 80.5t27.5 79.5q7 24 16 60l19 78q-36 -1 -63.5 -1h-33.5q-8 0 -12 8.5t-4 19t4 19t12 8.5h108
q11 54 18 104t5 83q-1 29 -2 42.5t-2 24.5q-14 4 -44.5 3.5t-64.5 -3.5t-64.5 -6t-45.5 -4l-4 62q24 0 65 1.5t85 2t85 0t64 -3.5q14 -8 20 -29t9 -63q2 -48 -4.5 -102.5t-20.5 -111.5h68v0z" />
    <glyph glyph-name="eight" unicode="8" horiz-adv-x="500" 
d="M424 501q0 -25 -13.5 -55.5t-39.5 -65.5l-20.5 -23t-19.5 -19q46 -32 69.5 -67.5t23.5 -77.5q0 -26 -13.5 -56.5t-39.5 -65.5q-63 -80 -131 -80q-34 0 -92 46q-38 29 -55 62.5t-17 74.5q0 39 59 116q15 21 33 39q-5 3 -10 7.5t-10 9.5q-38 29 -55 62.5t-17 73.5
q0 41 59 116q61 84 113 84q29 0 79 -33q97 -64 97 -148zM337 443q0 82 -56 130q-22 17 -41.5 25.5t-41.5 8.5q-40 0 -40 -89q0 -80 76 -124q31 -17 45 -17q58 0 58 66zM337 134q0 43 -14.5 75t-41.5 55q-22 17 -41.5 26t-41.5 9q-40 0 -40 -90q0 -79 76 -123q28 -17 45 -17
q58 0 58 65z" />
    <glyph glyph-name="nine" unicode="9" horiz-adv-x="500" 
d="M439 442q-24 -247 -161 -402q-25 -27 -48 -42.5t-35 -19.5q-9 -3 -13.5 -2t-5 4t0.5 7t3 8q2 6 10.5 17.5l19 26l22 31t20.5 31.5l20.5 37t23 45t21.5 48.5t15 46.5q-23 -20 -53.5 -26.5t-52.5 -4.5q-35 3 -66.5 24.5t-54.5 52.5t-35.5 66.5t-9.5 67.5q5 50 21.5 92
t45 71.5t69 45t93.5 12.5q41 -2 71 -24t49 -56t26.5 -75t3.5 -82zM352 377q4 16 4 33t-1.5 34.5t-4.5 33.5t-4 29q-3 21 -16 39t-31 31.5t-38 22t-36 10.5q-20 2 -40 -32.5t-25 -89.5q-2 -24 5 -54t22.5 -57t39 -46t53.5 -22q28 -3 48 12t24 56z" />
    <glyph glyph-name="colon" unicode=":" horiz-adv-x="196" 
d="M51 430q0 12 15 19t35 7t34.5 -7t14.5 -18v-91q0 -11 -14.5 -18.5t-34.5 -7.5t-35 7.5t-15 19.5v89zM51 95q0 12 15 19t35 7t34.5 -7t14.5 -18v-71q0 -11 -14.5 -18.5t-34.5 -7.5t-35 7.5t-15 19.5v69z" />
    <glyph glyph-name="semicolon" unicode=";" horiz-adv-x="203" 
d="M78 83q5 22 39 22q18 0 29 -7t8 -18l-30 -145q-1 -5 -7 -15.5t-15.5 -21t-22.5 -18t-29 -7.5t-13 14zM61 430q0 12 15 19t35 7t34.5 -7t14.5 -18v-71q0 -11 -14.5 -18.5t-34.5 -7.5t-35 7.5t-15 19.5v69z" />
    <glyph glyph-name="less" unicode="&#x3c;" horiz-adv-x="256" 
d="M251 -214l-119.5 201t-101.5 203q-2 15 -2 33t2 37q47 99 102.5 198.5l118.5 202.5v-121q-46 -69 -89 -148t-83 -167q38 -81 81 -159l89 -156z" />
    <glyph glyph-name="equal" unicode="=" horiz-adv-x="471" 
d="M438 145l3 -5l2 -11q2 -20 2 -31t-1.5 -16.5t-4.5 -7t-7 -1.5q-5 0 -11 6.5t-16 16.5q-13 13 -33 11t-43 -2h-295q-8 0 -12 8t-4 17t4 17t12 8h371q11 0 19.5 -2.5t13.5 -7.5zM34 295q-8 0 -12 8t-4 17t4 17t12 8h399q8 0 12 -8t4 -17t-4.5 -17t-11.5 -8h-399z" />
    <glyph glyph-name="greater" unicode="&#x3e;" horiz-adv-x="256" 
d="M32 -90q51 82 92 160.5l78 154.5q-35 85 -78.5 162.5t-93.5 152.5v121l115.5 -196.5t105.5 -204.5q4 -17 4.5 -34.5t-4.5 -35.5q-51 -106 -106.5 -205l-114.5 -199z" />
    <glyph glyph-name="question" unicode="?" horiz-adv-x="408" 
d="M208 111q20 0 34.5 -7.5t14.5 -18.5v-70q0 -12 -14.5 -19t-34.5 -7t-35 7t-15 19v69q0 12 15 19.5t35 7.5zM373 551q6 -13 9 -27q2 -13 0.5 -29t-11.5 -35q-9 -17 -29 -43l-55 -69q-3 -4 -8 -12.5l-10.5 -18.5t-9 -18.5t-3.5 -11.5l1 -82q0 -11 -14.5 -18t-34.5 -7t-35 7
t-15 19v80q2 10 6 20q3 8 7.5 17t10.5 15q17 16 38 44.5t40 59t33.5 58.5t20.5 44q3 7 -9 22t-28.5 30t-32 25.5t-20.5 9.5q-3 -1 -15.5 -6.5t-30.5 -18t-39.5 -33t-42.5 -51.5q-13 -16 -18 -32.5t-7.5 -28t-5 -15t-8.5 5.5q-7 10 -10.5 14l-6 7l-5.5 6.5t-9 12.5
q-7 10 -8.5 20t-0.5 18q1 9 4 17q25 45 55.5 72t57.5 41t46.5 18t23.5 4q9 0 27.5 -5t41.5 -19t49 -39.5t51 -67.5z" />
    <glyph glyph-name="at" unicode="@" horiz-adv-x="921" 
d="M914 101q-31 -92 -104 -168q-83 -86 -159 -123q-86 -43 -195 -43q-185 0 -306 124q-120 123 -120 308q0 209 137 344l35 35q134 133 324 133q218 0 306 -163q43 -79 43 -163q0 -127 -45 -223q-19 -37 -71 -85q-56 -52 -141 -52q-14 0 -29 1.5t-30 3.5q49 187 49 231
q0 13 -18 20q-14 6 -28 6l-15 -1l-49 -214l-35 -34h-100l29 116q9 39 14 67.5t5 45.5q0 20 -44 20q-15 0 -23 -4l-44 -212l-35 -34h-99l52 248q1 9 28 34q25 24 37 29h95q31 1 51 0l20 76q7 23 9.5 41.5t2.5 34.5q0 19 -15 24l-39 -6l9 40l34 34l54 1q10 0 28 -6
q16 -4 28 -4q5 0 12 1t17 4q19 6 30 6h48l-9 -40l-34 -34l-29 6l-35 -177h175v-2l10 -7q3 -14 3 -19l-40 -220q10 2 17 4t13 4q73 92 73 242q0 135 -91 219q-89 82 -225 82q-154 0 -263 -99q-54 -51 -89 -155q-33 -96 -33 -177q0 -168 107 -280q106 -109 276 -109
q75 0 147 25q82 29 128 77q43 42 83 132l34 35h29zM551 309q2 2 4 2.5t4 2.5h-34l36 177q3 17 25 39q11 11 20 18t18 11h-40q-11 0 -30 -6q-20 -5 -29 -5q-7 0 -27 5l-13 3q11 -6 11 -22q0 -36 -15 -94l-25 -92l-29 -29q18 -5 18 -17q0 -35 -18 -114q-8 -29 -15 -58l-14 -58
h73l47 203zM832 259l-6 -19q-11 -32 -31 -63t-48 -62l-32 -32q-19 -14 -41 -17l39 220q0 5 -3 19l-10 7v2h-73q16 -7 16 -19q0 -20 -12.5 -77.5t-36.5 -152.5q16 -2 31 -3.5t29 -1.5q83 0 121 36q28 27 48 116zM349 301q11 7 23 12l-38 1q-14 -1 -34.5 -1h-48.5l-50 -242h71
l40 186q5 23 37 44zM64 234q0 -81 22 -147q-5 23 -7.5 48.5t-2.5 51.5q0 205 138 349q74 76 141 110q30 14 58 24q-43 -8 -86 -24q-89 -32 -142 -86q-57 -59 -90 -151q-15 -44 -23 -87.5t-8 -87.5zM869 66q-16 -32 -36.5 -61t-46.5 -55q-79 -79 -147 -113q-23 -11 -46 -19
t-48 -13q27 3 54 9.5t53 15.5q84 30 140 86q29 27 50 64.5t37 85.5h-10zM441 552l37 6q-3 1 -8 1h-8.5t-18.5 -1z" />
    <glyph glyph-name="A" unicode="A" horiz-adv-x="566" 
d="M557 17q1 -1 1 -3q0 -14 -20 -14h-57q-28 0 -43 43l-91 247l-218 -182q-8 -37 -12 -58t-5 -23q-15 -32 -66 -32q-35 0 -35 27q0 12 17 61.5t51 133.5q15 36 40.5 91.5l62.5 136.5l21 46.5l28 64.5q5 17 5 30q0 37 -19 47l-42 9q-30 6 -30 23q0 18 88 18q62 0 109 -75
q35 -55 66 -158l42 -137zM335 321l-77 209q-26 -63 -55.5 -155.5t-63.5 -220.5z" />
    <glyph glyph-name="B" unicode="B" horiz-adv-x="502" 
d="M488 70q0 -37 -41 -55q-32 -15 -72 -15h-281q-35 0 -35 34v619q0 26 29 26h239q97 0 97 -62q0 -96 -216 -229q280 -198 280 -318zM328 618q0 34 -106 34h-44q-20 0 -20 -27v-214q54 0 113 77q57 73 57 130zM359 79q0 130 -129 246q-39 36 -52 36q-20 0 -20 -16v-309h142
q59 0 59 43z" />
    <glyph glyph-name="C" unicode="C" horiz-adv-x="414" 
d="M129 309q5 -47 15.5 -78.5t30.5 -63.5q43 -72 85 -72q7 0 18.5 1.5t24 4.5t24.5 7t20 10q5 4 16.5 14.5l30.5 27.5l15 -7q-4 -22 -77 -93q-18 -18 -38 -31t-37 -22t-30 -13.5t-18 -4.5q-69 0 -126 143q-48 120 -48 204q0 94 76 217q42 67 95 100t97 33q27 0 62 -56
q31 -50 31 -83q0 -29 -17 -46q-5 -5 -15 -13t-25 -17l-24 1q-3 43 -22 81q-12 25 -37 37t-43 12q-43 0 -71 -72q-23 -58 -23 -109q0 -29 2.5 -57t7.5 -55z" />
    <glyph glyph-name="D" unicode="D" horiz-adv-x="562" 
d="M297 680q43 0 86 -27.5t77 -74.5t55 -110t21 -134q0 -68 -19 -129t-51.5 -106.5t-76.5 -72t-95 -26.5h-179q-54 0 -54 24v633q0 10 11.5 16.5t35.5 6.5h189zM234 43q53 12 87 36t54 59.5t27.5 82.5t7.5 107q0 24 -2.5 57.5t-9 69t-19.5 70t-33.5 61.5t-50.5 44t-71 17
h-64v-608q13 -1 26 -1q11 0 24 1t24 4z" />
    <glyph glyph-name="E" unicode="E" horiz-adv-x="446" 
d="M393 324q0 -26 -28 -45q-26 -16 -52 -16q-9 0 -34 40q-27 40 -34 40q-15 0 -61 -26q-48 -27 -48 -40q0 -46 39 -110q43 -72 85 -72q7 0 18.5 1.5t24 4.5t24.5 7t20 10q5 4 16.5 14.5l30.5 27.5l15 -7q-4 -22 -77 -93q-18 -18 -38 -31t-37 -22t-30 -13.5t-18 -4.5
q-69 0 -126 143q-48 120 -48 204q0 94 76 217q42 67 95 100t97 33q27 0 62 -56q31 -50 31 -83q0 -29 -17 -46q-5 -5 -15 -13t-25 -17l-24 1q-3 43 -22 81q-12 25 -37 37t-43 12q-43 0 -71 -72q-23 -58 -23 -109q0 -29 2.5 -57t7.5 -55q178 101 203 101q27 0 45 -31
q16 -26 16 -55z" />
    <glyph glyph-name="F" unicode="F" horiz-adv-x="440" 
d="M399 496q-3 0 -11.5 14l-18 31l-17 31t-7.5 15q-15 26 -41.5 40.5t-52.5 14.5h-21q-42 0 -57 -11.5t-15 -40.5v-215q37 21 67 27.5t51.5 6t35.5 -4.5t20 -4q9 -3 20 -8.5t20 -13t15 -18.5t6 -26q0 -23 -24 -32t-56 -9q-2 0 -12.5 9.5l-22 20.5l-21.5 20.5t-12 9.5
q-4 0 -12.5 3.5t-20.5 5.5t-26 0.5t-28 -11.5v-334q0 -22 -51 -22q-48 0 -48 24v639q0 21 25 21h293q15 0 25.5 -4.5t16.5 -16.5t9 -33t3 -54q0 -26 -1.5 -41t-4.5 -22.5t-7 -9.5t-9 -2h-10v0z" />
    <glyph glyph-name="G" unicode="G" horiz-adv-x="521" 
d="M257 85q5 0 21 5t35.5 14.5t39 23t33.5 30.5q6 7 8 23.5t2.5 36.5t-0.5 40.5t-2 34.5h-27.5h-27.5h-23.5h-15.5q-11 0 -19 6t-9.5 13.5t5.5 14t26 6.5h189q4 -5 6 -12.5t2.5 -16t-0.5 -16.5t-2 -13q-11 -72 -41 -123t-64.5 -84t-66.5 -50t-46 -21q-2 -1 -10.5 -1.5
l-17.5 -1t-16.5 -1t-8.5 -0.5q-19 0 -34.5 7.5t-31 23t-32 38t-36.5 52.5q-37 57 -46 105t-7 88q8 122 48.5 207t123.5 150q15 12 38 17t32 5q23 0 48 -12t47 -42q20 -27 23 -43.5t3 -39.5q0 -21 -21 -54q-23 -36 -42 -36q-4 0 -5 10.5t-9 30.5q-11 27 -15 39.5t-12 23.5
l-13.5 18.5t-15 14.5t-20 9t-28.5 3q-19 0 -41.5 -23.5t-34.5 -56.5q-10 -26 -15.5 -54.5t-5.5 -51.5q0 -46 5.5 -91t25.5 -96l22 -59.5t21.5 -47.5t25 -31.5t32.5 -11.5z" />
    <glyph glyph-name="H" unicode="H" horiz-adv-x="571" 
d="M547 19q0 -24 -45 -24q-54 0 -54 26v323l-290 -1v-323q0 -25 -45 -25q-54 0 -54 25v643q0 21 49 21q50 0 50 -21v-286h290v287q0 20 47 20q52 0 52 -24v-641z" />
    <glyph glyph-name="I" unicode="I" horiz-adv-x="215" 
d="M162 16q0 -21 -39 -21q-60 0 -60 21v643q0 20 60 20q39 0 39 -21v-642z" />
    <glyph glyph-name="J" unicode="J" horiz-adv-x="264" 
d="M201 676q15 -8 22.5 -28t12.5 -62q3 -28 5 -56.5t2 -57.5q0 -57 -9 -122t-25.5 -128t-39.5 -119.5t-52 -97.5q-19 -26 -39 -39.5t-31 -13.5q-15 0 -10 13q3 4 8.5 14t13.5 26q40 86 56 165q4 18 9 49.5t9.5 67t7.5 70.5t3 61q0 86 -6 134q-3 29 -5 42.5t-4 24.5
q-29 6 -58 0t-58 -10v58q48 5 94.5 9t93.5 0z" />
    <glyph glyph-name="K" unicode="K" horiz-adv-x="513" 
d="M514 72q-1 -22 -21 -51q-21 -30 -42 -30q-14 0 -99 106q-36 45 -60.5 79.5l-38.5 54.5q-55 80 -55 129q0 58 57 142q124 184 180 184q31 0 48 -36q14 -27 14 -63q0 -22 -9 -50q-10 -36 -26 -39l-45 56q-37 43 -50 43q-18 0 -55 -66q-38 -64 -38 -84q0 -72 92 -197
q17 -23 54 -68zM158 21q0 -26 -54 -26q-45 0 -45 24v636q0 24 52 24q47 0 47 -20v-638z" />
    <glyph glyph-name="L" unicode="L" horiz-adv-x="440" 
d="M399 203q32 0 32 -125q0 -13 -0.5 -19t-1 -9t-1.5 -5t-2 -6q-12 -39 -49 -39h-293q-25 0 -25 21v634q0 24 48 24q51 0 51 -22v-568q0 -32 21 -44q16 -8 51 -8h21q26 0 49.5 12.5t38.5 38.5l7 10.5t6 10.5t7 16t9 27q15 51 31 51z" />
    <glyph glyph-name="M" unicode="M" horiz-adv-x="697" 
d="M671 13q0 -21 -42 -21q-57 0 -57 21l5 559l-10 -1q-35 -212 -54 -302q-51 -230 -99 -262q-22 -14 -52 -14q-68 0 -113 150q-8 25 -19 77t-26 133l-40 218h-11l5 -558q0 -21 -46 -21q-53 0 -53 21v648q0 18 19 18h86q15 0 21 -30l65 -305q48 -226 123 -226q67 0 127 286
l51 245q6 30 24 30h80q16 0 16 -18v-648z" />
    <glyph glyph-name="N" unicode="N" horiz-adv-x="571" 
d="M547 15q0 -24 -45 -24q-54 0 -54 26v131l-290 365v-497q0 -25 -45 -25q-54 0 -54 25v647q0 21 49 21q50 0 50 -21v-96l290 -363v460q0 20 47 20q52 0 52 -24v-645z" />
    <glyph glyph-name="O" unicode="O" horiz-adv-x="484" 
d="M459 364q0 -195 -159 -336q-41 -35 -63 -35q-25 0 -68 42q-137 135 -137 312q0 121 103 246q76 94 126 94q19 0 62 -38q136 -123 136 -285zM384 270q0 187 -115 286q-35 30 -57 30q-43 0 -76 -60q-29 -52 -29 -99q0 -185 127 -296q38 -34 61 -34q47 0 71 67q18 48 18 106
z" />
    <glyph glyph-name="P" unicode="P" horiz-adv-x="455" 
d="M445 512q0 -113 -90 -180q-82 -62 -197 -62v-254q0 -21 -56 -21q-43 0 -43 21v634q0 29 64 29q131 0 205 -23q117 -39 117 -144zM349 502q0 60 -34 103q-36 48 -94 48q-63 0 -63 -30v-291q0 -34 19 -34q84 0 130 62q42 55 42 142z" />
    <glyph glyph-name="Q" unicode="Q" horiz-adv-x="484" 
d="M521 -19q-28 -30 -50.5 -44t-45.5 -14q-19 0 -50 11.5t-63 46.5l-34 37l-24 -20t-17 -5q-25 0 -68 42q-137 134 -137 312q0 119 103 246q76 94 126 94q19 0 62 -38q136 -123 136 -285q0 -171 -120 -298q16 -14 30 -33l16 -22q14 -19 29.5 -30.5t29.5 -11.5q19 0 52 26z
M384 270q0 187 -115 286q-35 30 -57 30q-20 0 -39 -15.5t-33.5 -39t-23.5 -51.5t-9 -53q0 -185 127 -296q38 -34 61 -34q19 0 35.5 13.5t28.5 36.5t18.5 55t6.5 68z" />
    <glyph glyph-name="R" unicode="R" horiz-adv-x="476" 
d="M333 618q0 17 -33.5 25.5t-87.5 8.5h-44q-20 0 -20 -27v-214q28 0 63.5 19.5t65.5 57.5q56 74 56 130zM84 -6q-35 0 -35 34v625q0 26 30 26h253q97 0 97 -62q0 -26 -12.5 -54.5t-40.5 -58.5t-71.5 -59.5t-106.5 -56.5q80 -36 129 -88.5t76 -108t36.5 -105t9.5 -79.5
q0 -18 -13 -16t-36 3q-15 1 -29 1.5t-29 6.5l-2 71q-5 32 -12 64.5t-20 64.5t-34 63t-53 60q-41 36 -53 36q-20 0 -20 -16v-334q-3 -14 -21 -16t-43 -1z" />
    <glyph glyph-name="S" unicode="S" horiz-adv-x="528" 
d="M61 504q0 182 192 182q212 0 212 -179q0 -33 -41 -33q-17 0 -28 3t-17.5 8.5t-10.5 14.5t-8 21l-6 43t-7 43q-7 23 -37.5 34.5t-64.5 11.5q-42 0 -64 -48q-16 -36 -16 -92q0 -31 5 -57.5t15 -46t25 -30.5t35 -11q98 0 162 -40q20 -13 35.5 -25.5t26 -27.5t15.5 -34.5
t5 -44.5q0 -99 -39.5 -152t-120.5 -53q-35 0 -62 6t-48.5 13.5t-37 13.5t-27.5 6t-22.5 -10.5t-20.5 -23.5t-20 -23.5t-22 -10.5q-46 0 -46 26q0 50 41 88q20 17 41 21.5t44 4.5q2 0 21.5 -9.5l42.5 -20.5l44.5 -20.5t27.5 -9.5q28 0 47 11.5t30 27.5q19 28 19 92
q0 90 -37 120q-28 22 -111 34l-33.5 5l-20.5 3q-17 3 -29.5 8t-21.5 10q-67 43 -67 151z" />
    <glyph glyph-name="T" unicode="T" horiz-adv-x="567" 
d="M567 585q0 -116 -33 -116q-14 0 -27 46q-16 63 -31 86q-28 46 -84 46q-43 0 -43 -52v-583q0 -21 -54 -21q-45 0 -45 23v583q0 50 -52 50q-73 0 -94 -62l-20 -63q-17 -50 -26 -50q-16 0 -25 41q-6 28 -6 58q0 88 17 100q11 8 34 8h456q33 0 33 -94z" />
    <glyph glyph-name="U" unicode="U" horiz-adv-x="587" 
d="M59 667q0 16 52 16q26 0 34.5 -4t8.5 -12l2 -494q0 -65 31 -105.5t102 -40.5q46 0 71 10.5t36.5 32t13 53t1.5 73.5v477q0 9 53 9q26 0 39 -1t13 -9v-449q0 -64 -7.5 -109t-31.5 -73.5t-68 -42t-117 -13.5q-46 0 -88 1.5t-74.5 18t-51.5 54.5t-19 110v498z" />
    <glyph glyph-name="V" unicode="V" horiz-adv-x="509" 
d="M507 540q0 -6 -3 -18t-8 -25t-11.5 -22.5t-14.5 -9.5q-20 0 -29 15.5t-14 33.5l-9.5 33.5t-14.5 15.5q-6 0 -13 -10.5t-14.5 -28t-14.5 -41.5t-13 -51q-46 -209 -66 -370q-8 -63 -19 -63h-26h-27q-47 0 -54 37l-123 603q0 2 -0.5 5t-0.5 6q0 34 56 34q25 0 33 -4
q14 -8 17 -28l110 -554q43 267 90 459q33 136 97 136q30 0 52 -64q20 -54 20 -89z" />
    <glyph glyph-name="W" unicode="W" horiz-adv-x="814" 
d="M801 504q0 -54 -14.5 -114t-43.5 -126q-20 -43 -49 -97.5t-69 -120.5q-32 -53 -65 -53q-10 0 -19 14.5t-17 37t-15.5 49.5t-13 52.5l-10 45.5t-6.5 28q-14 48 -23.5 88t-12.5 55q-42 -39 -100 -160l-66 -180q-17 -30 -33 -30q-19 0 -66 67q-130 185 -130 407
q0 214 66 214t66 -28q0 -19 -9 -49q-7 -22 -10 -33.5t-4 -13.5q-6 -27 -6 -86q0 -77 13.5 -146.5t41.5 -129.5q33 -72 59 -72q3 0 7 9t11.5 27.5t20.5 46t33 64.5q41 75 53 120.5t12 60.5q0 17 -2.5 45t-22.5 69q-10 21 -13 37.5t-2.5 29t2.5 20.5t2 12q0 17 43 17
q23 0 34.5 -5t22.5 -16q16 -16 27 -50t21.5 -85.5t22 -121l26.5 -156.5q4 -21 12.5 -37t18 -26.5t18.5 -16t14 -5.5q26 0 61 113q32 104 32 142q0 58 -18 123l-19.5 58l-18.5 58q0 2 -0.5 2.5t-0.5 2.5q0 20 44 20q40 0 61 -16q34 -28 34 -161z" />
    <glyph glyph-name="X" unicode="X" horiz-adv-x="493" 
d="M202 345q-38 -88 -57 -169.5t-19 -151.5q0 -30 -58 -30q-25 0 -32 7q-11 7 -11 32q0 34 38 124t116 230q-74 128 -110.5 196.5t-36.5 77.5q0 21 46 21q14 0 24 -4.5t16.5 -10.5t10.5 -13t7 -13l90 -168l23.5 43.5l22 40l19 32.5t13.5 21q52 77 94 77q36 0 57 -31
q18 -27 18 -66q0 -17 -2.5 -32.5t-8.5 -30.5q-14 -41 -40 -41q-5 0 -41 51q-36 52 -43 52q-5 0 -14 -11.5t-21 -32l-27 -48t-30 -59.5l226 -404q8 -13 8 -31q0 -8 -6 -8.5t-35 -0.5q-45 0 -58 25z" />
    <glyph glyph-name="Y" unicode="Y" horiz-adv-x="492" 
d="M469 633q0 -14 -3 -34t-8 -39t-11.5 -32.5t-12.5 -13.5q-2 0 -10 9.5l-16.5 20.5t-15.5 21t-7 11q-6 0 -10 -15l-65 -212t-74 -224q-12 -33 -24.5 -59.5t-24.5 -44.5t-21.5 -28t-13.5 -10q-1 0 -7 2.5t-12.5 5.5t-13 5.5t-8.5 3.5q-11 4 -13 11.5t1 15.5t7.5 14t5.5 8
q5 6 12 11t15.5 13t18.5 20.5t20 33.5q20 42 26 69.5t6 47.5q0 3 -5 13.5t-16.5 30l-29 49.5l-41.5 74q-49 87 -74 152t-25 91q0 5 5 11.5t12.5 12t16 9t14.5 3.5q24 0 38 -21q1 -3 27 -66q38 -94 69.5 -156t55.5 -88q5 7 12.5 26.5t15.5 45l16.5 54t15 53.5t11 44t6.5 25
q10 35 31.5 58t40.5 23q24 0 43.5 -14t19.5 -41z" />
    <glyph glyph-name="Z" unicode="Z" horiz-adv-x="496" 
d="M495 -30q0 -69 -73 -116q-63 -39 -137 -39q-35 0 -35 16q0 14 39 23q26 5 43.5 10.5t26.5 10.5q37 22 37 67q0 64 -91 64q-9 0 -15.5 -0.5t-14 -1t-18 -2t-28.5 -2.5q-35 -4 -61.5 -5.5t-43.5 -1.5q-65 0 -65 26q0 12 13 35l268 541q12 21 12 41q0 17 -58 17
q-93 0 -134 -50q-3 -2 -38 -69q-30 -56 -39 -56q-29 0 -29 104q0 48 12 69q16 28 65 28h310q38 0 38 -22t-8 -39q-5 -11 -46.5 -85.5l-119.5 -214.5q-34 -61 -55 -108.5t-32.5 -80.5t-15.5 -52.5t-4 -25.5q0 -15 27 -15h199q28 0 50 -19q21 -18 21 -47z" />
    <glyph glyph-name="bracketleft" unicode="[" horiz-adv-x="271" 
d="M286 679l1 -20q-34 0 -51.5 0.5t-19.5 0.5q-44 0 -52 -11q-1 -6 -2 -25t-2 -47t-1.5 -63t-0.5 -73q0 -8 0.5 -23t0.5 -31.5t0.5 -31.5t0.5 -22q0 -15 -0.5 -37.5t-0.5 -53.5q0 -33 0.5 -62t0.5 -57t0.5 -56.5t0.5 -60.5q0 -5 -0.5 -14.5t-0.5 -20t-0.5 -20t-0.5 -14.5
q0 -33 1 -51t4 -26.5t8.5 -11t15.5 -3.5q1 -1 19.5 -0.5t54.5 -1.5l24 -1v-21h-209q-1 24 -1 42.5v30.5q0 14 -1 24q0 10 1 29.5t1.5 41t1.5 41.5t1 30q0 7 -0.5 21.5l-1 30t-1 29t-0.5 20.5v32t0.5 43.5t0.5 41.5v27q0 6 -0.5 17t-0.5 23.5t-0.5 24t-0.5 16.5q0 4 0.5 12.5
t1 18.5t1 18.5t0.5 13.5q0 4 -0.5 12t-0.5 17t-0.5 17t-0.5 13v156v6t1 9h208z" />
    <glyph glyph-name="backslash" unicode="\" horiz-adv-x="394" 
d="M396 -26q-3 6 -19 34.5l-40 72l-54 96.5l-60.5 108l-60 107l-52 92.5l-36.5 65l-14 24.5l-11 18.5t-12.5 15t-19 11t-30.5 6.5q-28 3 -33 13q-2 3 -2 6t4 7t14 9.5t28 13.5q10 5 25 8t20 2q15 -3 26 -24l182 -326l67.5 -121.5l60 -107l44 -78t19.5 -33.5q4 -8 -1.5 -14
t-14 -9.5t-17.5 -3t-13 6.5z" />
    <glyph glyph-name="bracketright" unicode="]" horiz-adv-x="271" 
d="M-11 657v21q16 1 33 1.5t34 0.5h22h43t37.5 -0.5t27.5 -1t14 -1.5v-32.5t0.5 -41t0.5 -37v-20.5q0 -6 -0.5 -16.5t-1.5 -22t-1.5 -22t-0.5 -15.5q0 -8 0.5 -26.5t1.5 -38.5t1.5 -39t0.5 -28v-292q0 -12 0.5 -36.5t1.5 -51t1.5 -50.5t0.5 -35t-0.5 -23.5t-0.5 -29.5
l-212 -1v21h52h11q45 0 60 9q1 4 2 23.5t2 49t1.5 66.5t0.5 76q0 16 -1 48.5t-1.5 68.5t-1.5 68.5t-1 48.5q0 3 0.5 10.5t0.5 15.5t0.5 15t0.5 10q0 11 -0.5 34t-1.5 48.5t-1.5 48t-0.5 33.5q0 5 0.5 15t1 21.5l1 22t0.5 16.5q0 40 -6 60q-24 9 -107 9h-15z" />
    <glyph glyph-name="asciicircum" unicode="^" horiz-adv-x="468" 
d="M202 662h66l188 -406h-73l-148 337l-149 -337h-73z" />
    <glyph glyph-name="underscore" unicode="_" horiz-adv-x="483" 
d="M361 -27q12 0 22 0.5t19.5 4t18.5 11.5t20 23q16 22 27 22q4 0 7 -1.5t4.5 -6.5t1.5 -16.5t-2 -30.5l-4 -21t-5 -15q-5 -5 -13.5 -8t-19.5 -3h-421q-8 0 -12 6.5t-4 14t4 14t12 6.5h345z" />
    <glyph glyph-name="grave" unicode="`" horiz-adv-x="262" 
d="M39 688h108l61 -166h-32z" />
    <glyph glyph-name="a" unicode="a" horiz-adv-x="460" 
d="M455 17q0 -20 -47 -20q-37 0 -44 13l-59 98q-17 -23 -44.5 -43.5t-58 -37t-61 -26t-54.5 -9.5q-22 0 -39 22t-17 50q0 24 15.5 63t38.5 80.5t50 79t50 57.5q-13 18 -22 37t-15 35t-9 27t-3 14q0 10 54 10q49 0 55 -11l201 -408q9 -15 9 -31zM200 320q-12 -11 -26.5 -36.5
t-27.5 -54.5t-21.5 -57t-8.5 -44q0 -51 50 -51q35 0 70 14t58 42z" />
    <glyph glyph-name="b" unicode="b" horiz-adv-x="446" 
d="M150 55q0 -14 7 -20t30 -6h40q20 0 34.5 16t23.5 40t13.5 52t4.5 52q0 69 -17.5 105.5t-42 54t-50.5 24t-43 16.5v-334zM54 627q0 13 15 19t35 6t33 -6t13 -18v-196q78 -24 126.5 -48.5t76.5 -57.5t38 -79.5t10 -115.5q0 -25 -10 -48.5t-28 -42t-43.5 -29.5t-57.5 -11
h-158q-22 0 -36 7.5t-14 26.5v593z" />
    <glyph glyph-name="c" unicode="c" horiz-adv-x="328" 
d="M288 119q-2 -4 -9.5 -27t-32.5 -49t-49 -38.5t-29 -12.5q-23 0 -59 42q-68 82 -68 199q0 38 15 78.5t46 82.5q27 37 53.5 55.5t41.5 18.5q33 0 60 -43q23 -38 23 -74q0 -15 -11 -34q-15 -21 -28 -21l-36 53q-14 19 -30.5 28t-24.5 9q-19 0 -28.5 -33t-9.5 -95
q0 -41 27 -101q31 -69 67 -69q3 0 22.5 15t45.5 30q7 1 15 0.5t-1 -14.5z" />
    <glyph glyph-name="d" unicode="d" horiz-adv-x="461" 
d="M305 393q-17 -10 -43 -17.5t-50.5 -26t-42 -55.5t-17.5 -106q0 -24 4.5 -51.5t13.5 -51.5t23.5 -40t34.5 -16h40q23 0 30 6t7 20v338zM401 34q0 -19 -14 -26.5t-36 -7.5h-158q-32 0 -57.5 11t-43.5 29t-28 41.5t-10 48.5q0 69 12 113t41 76t77.5 58t120.5 59v192
q0 12 13 18t33 6t35 -6t15 -19v-593z" />
    <glyph glyph-name="e" unicode="e" horiz-adv-x="338" 
d="M33 244q0 67 60 144q62 80 125 80q20 0 44 -33q25 -32 25 -53q0 -23 -18 -45q-9 -11 -15 -15.5t-17 -5.5q-27 42 -31 46q-11 16 -25.5 22.5t-23.5 6.5q-20 0 -32 -35q-3 -13 -5 -25.5t-2 -26.5q0 -38 5 -58t14 -20q17 0 67 24q49 23 71 23q8 0 22 -21q14 -22 14 -29
q0 -17 -18 -33q-14 -11 -20.5 -14t-11 0t-8.5 10t-12 15q-21 24 -29 24q-9 0 -23 -5t-24 -12q-22 -15 -22 -32q0 -28 20 -62q21 -40 46 -40q9 0 20 4t23 10t24 13.5t22 15.5l9 -13q-10 -17 -31 -39.5t-39 -37.5q-41 -35 -74 -35q-47 0 -92 104q-38 91 -38 148z" />
    <glyph glyph-name="f" unicode="f" horiz-adv-x="348" 
d="M103 532q3 51 18 82t37 48t48 22.5t52 5.5q27 0 49 -4t37.5 -15t23.5 -31t8 -53q0 -6 -3.5 -17.5t-9 -23t-11.5 -20t-11 -8.5l-20 45l-15.5 33t-9.5 19q-10 22 -19.5 31.5t-18 12.5t-15.5 2t-12 -1t-11 -3t-11.5 -13.5t-9.5 -29.5t-6 -50v-110h87q7 -14 7 -24
q0 -12 -7 -23h-87l1 -401q0 -14 -39 -16h-10q-42 0 -42 19v398h-75q-5 10 -5 24q0 13 5 23h75v78z" />
    <glyph glyph-name="g" unicode="g" horiz-adv-x="376" 
d="M266 -57q1 18 0.5 33t-1 28.5l-1 26.5t1.5 27q-9 -11 -22.5 -22.5t-28 -20.5t-28 -15t-22.5 -6q-18 0 -41 19.5t-43.5 51t-35 72t-14.5 82.5q0 24 12 58.5t36 82.5q13 26 28 45.5t30 33t29 20.5t24 7q11 0 33 -8.5t42 -28.5q19 -20 32.5 -36.5t21.5 -36.5t12 -47.5
t4 -68.5q0 -49 1 -90t1 -82q0 -30 -1 -60.5t-5 -62.5q0 -3 -1.5 -26t-10.5 -49t-28.5 -47t-55.5 -21q-16 0 -23 3.5t-12 8t-12.5 8.5t-23.5 4q-11 0 -16 -6.5l-10.5 -14t-14.5 -13.5t-27 -6q-32 0 -41 11.5t-9 44.5q0 24 15 31.5t44 7.5q19 0 36 -6t31 -12.5t25 -12.5t19 -6
q22 0 32 9.5t13.5 24.5t3.5 32.5t1 32.5zM250 127q0 121 -24.5 184t-84.5 63q-17 0 -30 -29t-13 -85q0 -32 9 -67t24 -64t34 -48.5t38 -19.5q21 0 34.5 11t13.5 35q0 2 -0.5 5t-0.5 6v9z" />
    <glyph glyph-name="h" unicode="h" horiz-adv-x="493" 
d="M157 370q17 27 33 45t32.5 29.5t35 16t40.5 4.5q25 0 47.5 -8t39.5 -22t27 -32.5t10 -39.5v-349q0 -9 -14 -15t-30.5 -6.5t-30 4t-13.5 16.5v313q0 46 -16.5 71t-50.5 25q-17 0 -33 -8.5t-30 -20.5t-26 -26.5t-21 -26.5v-330q0 -19 -46 -19q-45 0 -45 19l-1 609
q-1 8 -1 14.5v10.5q0 27 44 27q50 0 50 -30v-10t-1 -14v-247z" />
    <glyph glyph-name="i" unicode="i" horiz-adv-x="231" 
d="M155 565q0 -34 -45 -34q-41 0 -41 35v68q0 32 41 32q45 0 45 -35v-66zM159 10q0 -17 -33 -17h-29q-24 0 -24 17v434q0 17 31 17h22q33 0 33 -17v-434z" />
    <glyph glyph-name="j" unicode="j" horiz-adv-x="197" 
d="M166 242q0 -252 -103 -423q-35 -59 -57 -59q-13 0 -13 15q0 13 15 42t28 62q20 60 29 136t9 170q0 39 -1 76.5t-4 69.5q0 2 -1.5 13.5t-3 26.5l-3 30t-1.5 24q0 14 6 22t15.5 12.5t21.5 5.5t23 1q8 0 15.5 -21.5t13 -54.5t8.5 -72.5t3 -75.5zM139 560q0 -34 -44 -34
q-41 0 -41 35v68q0 32 41 32q44 0 44 -36v-65z" />
    <glyph glyph-name="k" unicode="k" horiz-adv-x="503" 
d="M486 76q0 -19 -47 -57q-46 -37 -67 -37q-25 0 -114 104q-45 53 -67 90.5t-22 51.5q0 32 96 134q96 103 126 103q32 0 50 -25q16 -22 16 -55q0 -9 -1.5 -20t-5.5 -22q-9 -31 -23 -31q-2 0 -39 29t-48 29q-22 0 -52 -35q-29 -35 -29 -58q0 -16 17 -49t51 -74q69 -81 99 -81
q11 0 42 20q18 1 18 -17zM151 8q0 -18 -48 -18q-42 0 -42 19v653q0 20 45 20t45 -19v-655z" />
    <glyph glyph-name="l" unicode="l" horiz-adv-x="212" 
d="M151 8q0 -18 -48 -18q-42 0 -42 19v653q0 20 45 20t45 -19v-655z" />
    <glyph glyph-name="m" unicode="m" horiz-adv-x="697" 
d="M454 454q40 0 67.5 -5t46 -15.5t30 -27t19.5 -38.5q4 -11 6.5 -32.5t4 -43t2 -39.5t0.5 -22l-1 -223q0 -8 -13 -8h-39t-34.5 2t-8.5 7v251q0 30 -2.5 59t-11 52.5t-25 37.5t-43.5 14q-14 0 -25.5 -0.5t-19.5 -0.5h-18l-2 -382v-32q0 -8 -20 -8q-5 -1 -10.5 -1h-12.5h-14
t-11 1q-17 0 -22 2t-5 7v251q0 30 -2.5 59t-11 52.5t-25 37.5t-43.5 14q-14 0 -25.5 -0.5t-19.5 -0.5h-18l-2 -407q0 -8 -8.5 -12t-34.5 -4q-52 0 -52 16v438h20q15 0 48 0.5t94 0.5h242z" />
    <glyph glyph-name="n" unicode="n" horiz-adv-x="461" 
d="M50 453h30q19 0 55 0.5t97 0.5q40 0 67.5 -5t46 -15.5t30 -27t19.5 -38.5q4 -11 6.5 -32.5t4 -43t2 -39.5t0.5 -22l-1 -223q0 -8 -13 -8h-39t-34.5 2t-8.5 7v251q0 30 -2.5 59t-11 52.5t-25 37.5t-43.5 14q-14 0 -28.5 -0.5t-26.5 -0.5h-28l-2 -407q0 -8 -8.5 -12
t-34.5 -4q-52 0 -52 16v438z" />
    <glyph glyph-name="o" unicode="o" horiz-adv-x="329" 
d="M315 243q0 -62 -44 -150q-51 -99 -106 -99q-28 0 -76 57q-58 70 -58 168q0 47 48 143q51 103 92 103q24 0 64 -40q80 -78 80 -182zM243 171q0 102 -45 159q-34 43 -67 43t-33 -111q0 -97 62 -151q24 -21 37 -21q46 0 46 81z" />
    <glyph glyph-name="p" unicode="p" horiz-adv-x="446" 
d="M56 420q0 19 14 26.5t36 7.5h158q32 0 57.5 -11t43.5 -29.5t28 -42t10 -48.5q0 -69 -10 -119t-38 -86.5t-76.5 -64t-126.5 -51.5v-176q0 -12 -13 -18t-33 -6t-35 6t-15 19v593zM152 45q17 10 43 19.5t50.5 31t42 61t17.5 108.5q0 24 -4.5 52t-13.5 52t-23.5 40t-34.5 16
h-40q-23 0 -30 -6t-7 -20v-354z" />
    <glyph glyph-name="q" unicode="q" horiz-adv-x="446" 
d="M307 399q0 14 -7 20t-30 6h-40q-20 0 -34.5 -16t-23.5 -40t-13.5 -52t-4.5 -52q0 -69 17.5 -108.5t42 -61t50.5 -31t43 -19.5v354zM403 -173q0 -13 -15 -19t-35 -6t-33 6t-13 18v176q-78 24 -126.5 51.5t-76.5 64t-38 86.5t-10 119q0 25 10 48.5t28 42t43.5 29.5t57.5 11
h158q22 0 36 -7.5t14 -26.5v-593z" />
    <glyph glyph-name="r" unicode="r" horiz-adv-x="406" 
d="M214 325l34 61q44 79 93 79q28 0 36.5 -21t8.5 -63q0 -2 -3 -10t-8 -16.5t-11.5 -15.5t-13.5 -7q-2 0 -6.5 5t-10 12l-10.5 14t-7 11q-2 11 -9 12t-11 1q-5 0 -10.5 -3.5t-14.5 -15.5t-23 -35t-34 -63v-264q0 -14 -39 -16h-9q-26 0 -37 8l-4 4q-1 2 -1 6v411
q-2 -1 -17 -1h-33h-48q-3 13 -1 26q1 6 3 12h12t12.5 -0.5t20 -1t35.5 -0.5q14 0 30 1t30.5 2.5t26 3t15.5 1.5t4 -1.5v-6.5v-129z" />
    <glyph glyph-name="s" unicode="s" horiz-adv-x="435" 
d="M286 309q1 6 1 12v12q0 104 -78 104q-34 0 -51 -29t-17 -71q0 -18 3.5 -35.5t10 -30.5t16.5 -21t23 -8q7 0 21 2t30 4t30.5 4t21.5 2q44 0 72.5 -32t28.5 -86q0 -72 -38.5 -107.5t-107.5 -35.5q-11 0 -21 5.5t-28 16.5l-3 4.5t-9 10t-15.5 9.5t-24.5 4q-11 0 -16 -8
l-10.5 -17t-14.5 -17t-27 -8q-32 0 -41 10.5t-9 39.5q0 67 61 67q9 0 32 -4.5t53 -26.5q31 -22 47 -32.5t27 -10.5t19 8t13.5 20.5t8.5 29t3 34.5q0 45 -7.5 66.5t-31.5 21.5q-4 0 -14.5 -1t-22.5 -2l-23 -2t-15 -1q-71 0 -101.5 31t-30.5 91q0 28 13 52.5t34.5 42.5
t51 28.5t62.5 10.5q35 0 66 -9t53.5 -26.5t35.5 -43t13 -58.5q0 -11 -26 -15.5t-68 -4.5z" />
    <glyph glyph-name="t" unicode="t" horiz-adv-x="326" 
d="M197 407v-397q0 -19 -46 -19q-45 0 -45 19v397h-78q-10 25 0 47h78v84q6 15 17 30.5t24 27.5t24 17.5t17 1.5q3 -2 6 -17.5t3 -23.5v-120h113q14 -25 0 -47h-113z" />
    <glyph glyph-name="u" unicode="u" horiz-adv-x="461" 
d="M50 449q0 16 52 16q26 0 34.5 -4t8.5 -12l2 -418q14 -1 28 -1h55q27 0 43.5 14t25 37.5t11 52.5t2.5 59v262q0 5 8.5 7t34.5 2h39t13 -8l1 -234q0 -5 -0.5 -22.5t-2 -39.5t-4 -43t-6.5 -32q-8 -23 -19.5 -39t-30 -26t-46 -15t-67.5 -5h-182v449z" />
    <glyph glyph-name="v" unicode="v" horiz-adv-x="438" 
d="M437 366q0 -19 -12 -44q-14 -30 -29 -30q-8 0 -30 36q-22 37 -28 37q-9 0 -23 -36.5t-34 -107.5q-17 -63 -27 -107.5t-14 -72.5q0 -5 -1 -12.5t-3 -17.5q-3 -12 -13 -12l-66 1q-17 0 -27 24q-8 16 -22 67.5t-36 139.5q-21 88 -32.5 142.5t-11.5 69.5q0 23 57 23
q32 0 36 -22l89 -378l29.5 142.5t21.5 88.5q49 171 112 171q24 0 45 -40q19 -34 19 -62z" />
    <glyph glyph-name="w" unicode="w" horiz-adv-x="639" 
d="M425 -8q-14 0 -39 73l-39 117l-39 115l-22 -55.5l-16 -42.5t-12.5 -36l-11 -35.5l-11.5 -40.5t-15 -51q-15 -44 -38 -44t-61 61q-50 79 -74.5 171t-24.5 189q0 32 11 43q10 12 42 12q17 0 25 -15t12 -44q5 -35 8.5 -76t8.5 -77q7 -30 22.5 -71t41.5 -76q8 9 18 30.5
t22 53.5t25 72.5l27 86.5q-19 39 -28.5 65t-9.5 34t16 12.5t38 4.5q20 0 32.5 -10t26.5 -30t26.5 -61l29.5 -93q25 -75 41.5 -113t18.5 -42q5 -11 10 -11q23 0 40 59q13 45 13 81q0 37 0.5 73t-8.5 60q-27 72 -27 73q0 14 47 14q26 0 38 -8t21 -25q6 -11 9 -33t3 -49v-29
q0 -93 -56 -198q-71 -134 -141 -134z" />
    <glyph glyph-name="x" unicode="x" horiz-adv-x="460" 
d="M249 244q216 -380 216 -390q0 -12 -30 -12q-69 0 -85 30l-152 262q-17 -35 -30.5 -69.5t-25.5 -70.5l-24.5 -74.5l-27.5 -82.5q-37 -109 -60 -109q-24 0 -24 23q0 14 9 45.5t29.5 82t53.5 121.5l81 166l-162 286q7 15 56 15q52 0 62 -19l97 -176l66 117q46 79 93 79
q55 0 55 -84q0 -9 -0.5 -14t-2 -10t-3.5 -11l-5 -15q-3 -10 -11.5 -19.5t-23.5 -9.5q-2 0 -6 1t-10 4.5t-12 10.5t-10 20q-5 13 -9.5 20t-8 9.5t-6.5 2.5h-4q-21 0 -85 -129z" />
    <glyph glyph-name="y" unicode="y" horiz-adv-x="487" 
d="M471 424q1 -40 0 -60t-5 -28.5t-11.5 -9t-19.5 -0.5q-13 -2 -23 7.5t-19 21.5l-17 22.5t-17 10.5q-7 0 -18.5 -19t-22.5 -61t-20 -108t-11 -159q-4 -70 -6.5 -117.5t-5 -79t-6.5 -52.5t-10.5 -38.5t-16 -36l-24.5 -45.5q-13 -24 -34 -38.5t-34 -9.5q-14 5 -19 11.5
t-6 13.5t0.5 13t1.5 9l51.5 83t32 66t16.5 67.5t5 88.5q0 5 -0.5 15t-0.5 15q-6 1 -13 2.5t-16 7.5t-20 17.5t-25 32.5q-35 51 -57.5 102t-35.5 97t-18 85t-5 65q0 20 24 41q12 10 16.5 12.5t15.5 2.5q8 0 22 -41q9 -28 15.5 -61.5l12.5 -64.5l11 -56.5t11 -37.5
q30 -61 71 -104v40q0 20 2.5 46.5t8 55.5t14 57.5t20.5 51.5q54 109 124 109q7 0 17.5 -1.5t20 -6t17 -12.5t7.5 -22z" />
    <glyph glyph-name="z" unicode="z" horiz-adv-x="400" 
d="M379 -65q0 -70 -79 -109q-64 -34 -141 -34q-23 0 -23 13q0 7 37 20q47 15 69 32q38 29 38 72q0 15 0.5 30.5t-13.5 28t-50.5 21t-111.5 8.5q-17 0 -17 20q0 10 5.5 26.5t18.5 42.5l33 64l49 91l44.5 80l22.5 39.5t8 17.5t1 15q0 15 -39 15q-91 0 -119 -64l-21 -54
q-18 -42 -28 -42q-35 0 -35 129q0 61 39 61h303q16 0 16 -7q0 -10 -0.5 -14.5t-6.5 -16.5t-20.5 -36.5l-42.5 -75.5l-45 -87.5l-30.5 -62l-20.5 -42t-14 -26.5q-5 -9 7 -15.5t31 -12.5l40 -12.5t35 -15.5q29 -12 44.5 -39.5t15.5 -59.5z" />
    <glyph glyph-name="braceleft" unicode="{" horiz-adv-x="398" 
d="M331 -216q-76 11 -128 61q-56 53 -56 127q0 24 11 77q12 52 12 78q0 40 -37 71q-33 27 -75 31v21q42 4 75 31q37 29 37 71q0 26 -12 77q-11 55 -11 78q0 73 56 127q27 25 58.5 40t69.5 20v-17q-111 -26 -111 -111q0 -26 11 -79q5 -26 8 -45.5t3 -33.5q0 -59 -45 -105
q-40 -42 -99 -62q61 -23 99 -64q45 -48 45 -106q0 -14 -3 -33.5t-8 -45.5q-11 -53 -11 -79q0 -85 111 -112v-17z" />
    <glyph glyph-name="bar" unicode="|" horiz-adv-x="261" 
d="M109 -152q-2 80 -3 171.5t-1 197.5t1 228.5t3 264.5h43q8 -210 7 -425t-7 -437h-43z" />
    <glyph glyph-name="braceright" unicode="}" horiz-adv-x="377" 
d="M46 694q38 -5 69.5 -20t58.5 -40q56 -54 56 -127q0 -23 -11 -78q-6 -26 -8.5 -45t-2.5 -33q0 -42 36 -70q33 -27 75 -31v-21q-43 -4 -76 -31q-35 -28 -35 -71q0 -13 2.5 -32.5t8.5 -45.5q11 -53 11 -77q0 -73 -56 -127q-55 -51 -128 -61v17q111 27 111 112q0 14 -3 33.5
t-8 45.5q-12 51 -12 78q0 59 45 106q40 41 100 62q-61 23 -99 64q-46 47 -46 106q0 26 12 79q11 53 11 79q0 85 -111 111v17z" />
    <glyph glyph-name="asciitilde" unicode="~" horiz-adv-x="587" 
d="M361 169q-20 0 -48.5 5.5t-66.5 16.5q-75 22 -116 22q-13 0 -36 -10q-25 -10 -28 -10q-2 0 -5.5 4t-18.5 14q72 60 151 60q36 0 99 -19q66 -20 99 -20q86 0 128 37l4 1q5 -4 9 -9.5t9 -11.5q-22 -31 -82 -56q-56 -24 -98 -24z" />
    <glyph glyph-name="nonbreakingspace" unicode="&#xa0;" horiz-adv-x="250" 
 />
    <glyph glyph-name="_95" unicode="&#xa6;" horiz-adv-x="500" 
d="M229 679h43v-353h-43v353zM229 134h43v-352h-43v352z" />
    <glyph glyph-name="dieresis" unicode="&#xa8;" horiz-adv-x="398" 
d="M344 606q0 -23 -15.5 -39.5t-37.5 -16.5q-23 0 -39 16t-16 38q0 23 16 39t39 16q22 0 37.5 -15.5t15.5 -37.5zM153 605q0 -23 -15.5 -39t-38.5 -16t-39.5 16t-16.5 38q0 23 15.5 39t37.5 16q23 0 40 -16t17 -38z" />
    <glyph glyph-name="quillemotleft" unicode="&#xab;" horiz-adv-x="500" 
d="M456 408q0 -21 -130 -181q129 -165 129 -180q0 -11 -11 -11q-3 0 -97 87l-79 71t-35 30l45 40l63 57q106 98 104 98q11 0 11 -11zM265 408q0 -24 -130 -181q129 -165 129 -180q0 -11 -11 -11q-3 0 -97 87l-79 71t-35 30q8 8 41.5 39l92.5 85q13 13 32.5 30.5l45.5 40.5
q11 0 11 -11z" />
    <glyph glyph-name="acute" unicode="&#xb4;" horiz-adv-x="303" 
d="M102 522h-32l61 166h109z" />
    <glyph glyph-name="Paragraph" unicode="&#xb6;" horiz-adv-x="453" 
d="M432 643q-28 -2 -41 -13q-20 -17 -27 -75q-6 -48 -6 -134v-272q0 -119 -30 -180q-56 -115 -212 -115q-50 0 -76 17q-26 13 -28 44q0 18 13 31q14 11 32 11t31 -11.5t14 -31.5q2 -9 -3 -15q-1 -4 -8 -14q54 -1 76 56q11 32 17 113q1 6 1 21t1 39v167q-96 0 -151 55
q-56 58 -56 136q0 47 24 92q26 47 76 71q15 8 33.5 12.5t41.5 8.5q40 6 121 6h157v-19zM255 643q-7 0 -19 -22q-10 -17 -13 -28q-4 -11 -5 -29q-1 -4 -1 -15.5t-1 -30.5q0 -8 -0.5 -18.5t-0.5 -24.5v-295q0 -152 -11 -213q-11 -56 -59 -85l1 -6q101 20 132 109q19 53 19 195
v187q0 52 1 93t3 72q6 86 34 111h-80z" />
    <glyph glyph-name="periodcentered" unicode="&#xb7;" horiz-adv-x="276" 
d="M143 350q25 0 42 -17t17 -41q0 -23 -17 -39.5t-41 -16.5q-23 0 -39.5 17t-16.5 41q0 23 16 39.5t39 16.5z" />
    <glyph glyph-name="guillemotright" unicode="&#xbb;" horiz-adv-x="500" 
d="M457 224l-23.5 -19.5l-32.5 -27.5q-34 -29 -70.5 -63.5l-78.5 -75.5q-2 0 -3 -0.5l-3 -1.5q-10 0 -10 11q0 19 128 180q-129 159 -129 181q0 11 10 11l89 -80.5zM266 224l-23.5 -19.5l-32.5 -27.5l-72 -65.5l-77 -73.5l-6 -2q-10 0 -10 11q0 16 128 180
q-129 159 -129 181q0 11 10 11q4 0 34 -30l74 -67.5z" />
    <glyph glyph-name="dotlessi" unicode="&#x131;" horiz-adv-x="231" 
d="M159 10q0 -17 -33 -17h-29q-24 0 -24 17v434q0 17 31 17h22q33 0 33 -17v-434z" />
    <glyph glyph-name="Gravecomb" unicode="&#x300;" 
d="M-96 536l-102 196h93l34 -196h-25z" />
    <glyph glyph-name="Acutecomb" unicode="&#x301;" 
d="M-167 536h-26l34 196h93z" />
    <glyph glyph-name="uni0302" unicode="&#x302;" 
d="M-343 610q21 26 51 43.5t79 17.5q56 0 87 -25t29 -66q-3 -13 -8.5 -25t-20.5 -12q-6 0 -9 9l-7 20.5t-10.5 22.5t-20.5 16q-11 5 -23.5 7.5t-24.5 2.5q-15 0 -29.5 -2.5t-27 -8.5t-21.5 -15.5t-12 -24.5q-2 -16 -11 -22.5t-23 -6.5q-58 0 2 69z" />
    <glyph glyph-name="macroncomb" unicode="&#x304;" 
d="M-69 639v-53h-263v53h263z" />
    <glyph glyph-name="overlinecmb" unicode="&#x305;" 
d="M-10 658v-53h-376v53h376z" />
    <glyph glyph-name="uni0306" unicode="&#x306;" 
d="M-353 602q0 69 58 69q16 0 16 -6q0 -9 -10 -23q-10 -17 -10 -23q0 -28 61 -28q25 0 56 10q17 5 29.5 11.5t20.5 13.5l26 26q16 17 28 17q11 0 11 -9t-14 -28q-31 -41 -73.5 -66t-98.5 -25q-50 0 -75 17.5t-25 43.5z" />
    <glyph glyph-name="Dotaccentcomb" unicode="&#x307;" 
d="M-152 538q-22 0 -36 14q-16 16 -16 36t15.5 35t36.5 15t36 -15q15 -14 15 -35t-15.5 -35.5t-35.5 -14.5z" />
    <glyph glyph-name="Dieresiscomb" unicode="&#x308;" 
d="M-124 539q-19 0 -33 14q-14 16 -14 34q0 21 14 35t34 14t34 -14t14 -35q0 -48 -49 -48zM-322 539q-20 0 -34 14t-14 34q0 21 14 35t34 14t34 -14t14 -35q0 -20 -14 -34t-34 -14z" />
    <glyph glyph-name="Hungarumlautcomb" unicode="&#x30b;" 
d="M-238 538h-26l35 197h93zM-95 541l-26 -1l35 197h93z" />
    <glyph glyph-name="Dblgravecomb" unicode="&#x30f;" 
d="M-48 535l-102 197h93l35 -197h-26zM-191 538l-102 196h93l34 -197z" />
    <glyph glyph-name="uni0311" unicode="&#x311;" 
d="M-333 620q21 26 52.5 43.5t80.5 17.5q56 0 85.5 -25t27.5 -66q-3 -13 -8.5 -25t-20.5 -12q-6 0 -9 9l-7 20.5t-10.5 22.5t-20.5 16q-11 5 -23.5 7.5t-24.5 2.5q-56 0 -80 -28q-6 -4 -7 -9.5t-3 -13.5q-2 -16 -11 -22.5t-23 -6.5q-58 0 2 69z" />
    <glyph glyph-name="tildeverticalcmb" unicode="&#x33e;" 
d="M-155 762q-22 -5 -29.5 -14.5t-5.5 -25.5l22 -46q19 -28 23 -50q5 -36 -15 -58t-68 -34l-5 37q20 9 27.5 18.5t6.5 23.5q-1 8 -6 17.5t-16 28.5q-8 16 -13 25t-7.5 14t-3.5 8t-1 7q-5 35 16.5 56.5t68.5 34.5z" />
    <glyph glyph-name="uni0360" unicode="&#x360;" 
d="M-224 616q-3 -18 -2.5 -36t2.5 -36h-56q-14 50 0 103h522q-4 17 -5 34.5t5 37.5h58q-7 -28 -5.5 -53.5t5.5 -49.5h-524z" />
    <glyph glyph-name="uni0361" unicode="&#x361;" 
d="M364 560q-17 8 -35.5 19t-53.5 28q-144 64 -294 64q-15 0 -39.5 -2.5t-52 -8t-55 -13.5t-50 -19.5t-36.5 -26.5t-14 -33q0 -2 -0.5 -5.5t1.5 -7.5q-6 -2 -16.5 -3t-42.5 -1q-30 0 -30 19q0 21 46 58q60 48 131 67t156 19q43 0 90 -4t98 -21q42 -14 78.5 -31.5t68.5 -37.5
q65 -41 65 -57z" />
    <glyph glyph-name="uni0374" unicode="&#x374;" horiz-adv-x="262" 
d="M71 522h-32l61 166h108z" />
    <glyph glyph-name="uni0375" unicode="&#x375;" horiz-adv-x="262" 
d="M91 -124h-32l61 166h108z" />
    <glyph glyph-name="uni037E" unicode="&#x37e;" horiz-adv-x="203" 
d="M78 83q5 22 39 22q18 0 29 -7t8 -18l-30 -145q-1 -5 -7 -15.5t-15.5 -21t-22.5 -18t-29 -7.5t-13 14zM61 430q0 12 15 19t35 7t34.5 -7t14.5 -18v-71q0 -11 -14.5 -18.5t-34.5 -7.5t-35 7.5t-15 19.5v69z" />
    <glyph glyph-name="Anoteleia" unicode="&#x387;" horiz-adv-x="190" 
d="M108 388q19 0 37 -16q17 -17 17 -38q0 -23 -15.5 -40t-39.5 -17q-50 0 -50 61q0 19 16 35q15 15 35 15z" />
    <glyph glyph-name="uni0400" unicode="&#x400;" horiz-adv-x="406" 
d="M393 324q0 -26 -28 -45q-26 -16 -52 -16q-9 0 -34 40q-27 40 -34 40q-15 0 -61 -26q-48 -27 -48 -40q0 -46 39 -110q43 -72 85 -72q26 0 57 23q5 4 16.5 14.5l30.5 27.5l15 -7q-4 -22 -77 -93q-74 -71 -93 -71q-69 0 -126 143q-48 120 -48 204q0 94 76 217
q84 133 172 133q27 0 62 -56q31 -50 31 -83q0 -29 -17 -46q-5 -5 -15 -13t-25 -17l-24 1q-3 43 -22 81q-24 49 -60 49q-43 0 -71 -72q-23 -58 -23 -109q0 -29 2.5 -57t7.5 -55q178 101 203 101q27 0 45 -31q16 -26 16 -55zM249 732l-97 159h103l29 -160z" />
    <glyph glyph-name="afii10023" unicode="&#x401;" horiz-adv-x="406" 
d="M393 324q0 -26 -28 -45q-26 -16 -52 -16q-9 0 -34 40q-27 40 -34 40q-15 0 -61 -26q-48 -27 -48 -40q0 -46 39 -110q43 -72 85 -72q26 0 57 23q5 4 16.5 14.5l30.5 27.5l15 -7q-4 -22 -77 -93q-74 -71 -93 -71q-69 0 -126 143q-48 120 -48 204q0 94 76 217
q84 133 172 133q27 0 62 -56q31 -50 31 -83q0 -29 -17 -46q-5 -5 -15 -13t-25 -17l-24 1q-3 43 -22 81q-24 49 -60 49q-43 0 -71 -72q-23 -58 -23 -109q0 -29 2.5 -57t7.5 -55q178 101 203 101q27 0 45 -31q16 -26 16 -55zM340 716q-22 0 -36 22q-12 19 -12 43q0 25 12 43
q13 22 36 22t36 -22q12 -18 12 -43q0 -65 -48 -65zM141 716q-22 0 -36 22q-12 19 -12 43q0 25 12 43q13 22 36 22t36 -22q12 -18 12 -43q0 -24 -12 -43q-14 -22 -36 -22z" />
    <glyph glyph-name="cyDJE" unicode="&#x402;" horiz-adv-x="521" 
d="M59 579h-59v43h59v91q0 21 48 21q51 0 51 -21v-91h187q6 -20 0 -43h-187v-186q6 17 16.5 34.5t26.5 32t39 23.5t54 9q87 0 136 -41t49 -113v-216q0 -32 -15 -57.5t-40 -43.5t-57.5 -28t-66.5 -10q-8 0 -13.5 4.5t-7 10.5t1.5 11.5t12 8.5q8 2 18.5 3t20.5 3t19.5 6.5
t16.5 13.5q12 16 17.5 51.5t6.5 73t0 67.5t-1 34q1 45 -4.5 79t-19.5 57.5t-37.5 35.5t-59.5 12q-33 0 -61.5 -30t-50.5 -74v-325q0 -11 -5 -18t-15 -7h-63q-8 0 -12 7t-4 17v555z" />
    <glyph glyph-name="afii10052" unicode="&#x403;" horiz-adv-x="440" 
d="M399 446q-16 0 -31 51l-19 58.5t-16 35.5q-30 51 -82 51h-21q-35 0 -51 -8q-21 -12 -21 -44v-568q0 -22 -51 -22q-48 0 -48 24v634q0 21 25 21h293q37 0 49 -39q5 -18 5 -69q0 -125 -32 -125zM191 731l29 160h103l-96 -159z" />
    <glyph glyph-name="cyuaYE" unicode="&#x404;" horiz-adv-x="663" 
d="M648 166q0 -79 -96 -130q-79 -43 -167 -43q-86 0 -164 39q-79 39 -129 107q-58 79 -58 205q0 124 89 227q101 115 271 115q75 0 147 -35q85 -42 85 -110q0 -19 -10 -32q-13 -16 -29 -16q-28 0 -55 43q-42 66 -55 80q-42 43 -104 43q-118 0 -180 -113q-45 -81 -45 -147
q0 -24 21 -24l366 5q42 0 42 -40q0 -37 -15 -50t-52 -13q-53 0 -53 40q0 5 2 12t2 12q0 8 -16 8q5 0 -51 0t-173 -1q-71 0 -71 -20q0 -86 37 -159q41 -79 111 -117q39 -21 75 -21q106 0 140 49q4 6 30 92q15 49 71 49q34 0 34 -55z" />
    <glyph glyph-name="cyDZE" unicode="&#x405;" horiz-adv-x="528" 
d="M71 504q0 182 192 182q212 0 212 -179q0 -33 -41 -33q-17 0 -28 3t-17.5 8.5t-10.5 14.5t-8 21l-6 43t-7 43q-7 23 -37.5 34.5t-64.5 11.5q-42 0 -64 -48q-16 -36 -16 -92q0 -31 5 -57.5t15 -46t25 -30.5t35 -11q98 0 162 -40q20 -13 35.5 -25.5t26 -27.5t15.5 -34.5
t5 -44.5q0 -99 -39.5 -152t-120.5 -53q-35 0 -62 6t-48.5 13.5t-37 13.5t-27.5 6t-22.5 -10.5t-20.5 -23.5t-20 -23.5t-22 -10.5q-46 0 -46 26q0 50 41 88q20 17 41 21.5t44 4.5q2 0 21.5 -9.5l42.5 -20.5l44.5 -20.5t27.5 -9.5q28 0 47 11.5t30 27.5q19 28 19 92
q0 90 -37 120q-28 22 -111 34l-33.5 5l-20.5 3q-17 3 -29.5 8t-21.5 10q-67 43 -67 151z" />
    <glyph glyph-name="afii10055" unicode="&#x406;" horiz-adv-x="215" 
d="M162 11q0 -21 -39 -21q-60 0 -60 21v648q0 20 60 20q39 0 39 -21v-647z" />
    <glyph glyph-name="cyuaYI" unicode="&#x407;" horiz-adv-x="303" 
d="M202 11q0 -21 -39 -21q-60 0 -60 21v648q0 20 60 20q39 0 39 -21v-647zM252 716q-20 0 -36 22q-11 18 -11 43q0 26 11 43q15 22 36 22q22 0 37 -22q11 -19 11 -43q0 -65 -48 -65zM53 716q-22 0 -36 22q-12 19 -12 43q0 25 12 43q13 22 36 22t36 -22q12 -18 12 -43
q0 -24 -12 -43q-14 -22 -36 -22z" />
    <glyph glyph-name="afii10057" unicode="&#x408;" horiz-adv-x="264" 
d="M201 676q15 -8 22.5 -28t12.5 -62q3 -28 5 -56.5t2 -57.5q0 -57 -9 -122t-25.5 -128t-39.5 -119.5t-52 -97.5q-19 -26 -39 -39.5t-31 -13.5q-15 0 -10 13q3 4 8.5 14t13.5 26q40 86 56 165q4 18 9 49.5t9.5 67t7.5 70.5t3 61q0 86 -6 134q-3 29 -5 42.5t-4 24.5
q-29 6 -58 0t-58 -10v58q48 5 94.5 9t93.5 0z" />
    <glyph glyph-name="afii10058" unicode="&#x409;" horiz-adv-x="819" 
d="M799 79q0 -79 -148 -79h-251q-30 0 -30 21v622h-182q4 -17 9 -47q3 -28 5 -56.5t2 -57.5q0 -57 -7.5 -123.5t-22 -131.5t-36.5 -123t-51 -99q-38 -53 -60 -53q-13 0 -10 13q7 9 22 40q40 84 57 165q3 18 5.5 51t4 70.5t2.5 74t1 62.5q0 43 -1.5 76t-3.5 58q-5 45 -8 67
t-3 21q0 8 5.5 19t25.5 11q75 0 126.5 -0.5t85.5 -0.5h53h28.5h12h4.5q35 0 35 -18v-265l98 -52q82 -44 149 -110q83 -83 83 -155zM673 92q0 85 -67 159q-21 25 -55 53t-82 60v-285q0 -45 38 -45h97q69 0 69 58z" />
    <glyph glyph-name="afii10059" unicode="&#x40a;" horiz-adv-x="863" 
d="M847 79q0 -79 -148 -79h-251q-31 0 -31 21v339h-255v-345q0 -21 -39 -21q-60 0 -60 21v647q0 20 60 20q39 0 39 -21v-264h255v267q0 18 64 18q35 0 35 -18v-268l99 -52q41 -22 78 -49t70 -61q84 -83 84 -155zM721 92q0 83 -67 159q-22 25 -56 53t-82 60v-285
q0 -45 39 -45h96q70 0 70 58z" />
    <glyph glyph-name="afii10060" unicode="&#x40b;" horiz-adv-x="551" 
d="M59 590h-59v47h59v91q0 21 48 21q51 0 51 -21v-91h191q10 -22 0 -47h-191v-197q16 20 36.5 35t41.5 24.5t41 14.5t37 5q80 0 129 -37q56 -42 56 -117v-242q0 -33 30 -33q16 0 29 8q0 -58 -100 -58q-60 0 -60 110v20t1 29q0 8 0.5 28l1 41t0.5 38.5v21.5q0 68 -20 102
q-26 42 -90 42q-33 0 -67.5 -15t-65.5 -47v-342q0 -21 -20 -21h-63q-16 0 -16 20v570z" />
    <glyph glyph-name="afii10061" unicode="&#x40c;" horiz-adv-x="513" 
d="M514 77q-1 -22 -21 -51q-21 -30 -42 -30q-14 0 -99 106q-72 88 -99 129q-55 80 -55 129q0 58 57 142q124 184 180 184q31 0 48 -36q14 -27 14 -63q0 -22 -9 -50q-10 -36 -26 -39l-45 56q-37 43 -50 43q-18 0 -55 -66q-38 -64 -38 -84q0 -72 92 -197q17 -23 54 -65.5z
M158 21q0 -26 -54 -26q-45 0 -45 24v636q0 24 52 24q47 0 47 -20v-638zM226 731l28 160h103l-96 -159z" />
    <glyph glyph-name="uni040D" unicode="&#x40d;" horiz-adv-x="579" 
d="M59 655q0 24 52 24q47 0 47 -20v-460l290 363v96q0 21 50 21q49 0 49 -21v-638q0 -25 -60 -25q-39 0 -39 25v488l-290 -365v-122q0 -26 -54 -26q-45 0 -45 24v636zM302 732l-96 159h103l28 -160z" />
    <glyph glyph-name="afii10062" unicode="&#x40e;" horiz-adv-x="492" 
d="M132 806q0 69 57 69q17 0 17 -6q0 -9 -10 -23t-10 -23q0 -28 61 -28q25 0 56 10q17 5 29.5 11.5t20.5 13.5l25 26q18 18 29 18q10 0 10 -10q0 -11 -13 -28q-31 -41 -73.5 -66t-98.5 -25q-50 0 -75 17.5t-25 43.5zM469 632q0 -14 -3 -34t-8 -39t-11.5 -32.5t-12.5 -13.5
q-2 0 -10 9.5l-16.5 20.5t-15.5 21t-7 11q-6 0 -10 -15l-65 -211.5t-74 -223.5q-12 -33 -24.5 -59.5t-24.5 -44.5t-21.5 -28t-13.5 -10q-1 0 -7 2.5t-12.5 5.5t-13 5.5t-8.5 3.5q-11 4 -13 11.5t1 15.5t7.5 14t5.5 8q5 6 12 11t15.5 13t18.5 20.5t20 33.5q20 42 26 69.5
t6 47.5q0 3 -5 13t-16.5 29.5l-29 49.5l-41.5 74q-49 87 -74 152t-25 91q0 5 5 11.5t12.5 12t16 9t14.5 3.5q24 0 38 -21q1 -3 27 -66q38 -94 69.5 -156t55.5 -88q5 7 12.5 26.5t15.5 45l16.5 54t15 53.5t11 44t6.5 25q10 35 31.5 58t40.5 23q24 0 43.5 -14t19.5 -41z" />
    <glyph glyph-name="cyDZHE" unicode="&#x40f;" horiz-adv-x="627" 
d="M314 -176q-8 0 -17.5 1.5t-17.5 5t-13.5 10t-5.5 16.5l2 143h-180q-23 0 -23 18v649q0 15 52 15q53 0 53 -9l-2 -610q0 -23 27 -23h202q22 0 40.5 15t18.5 36l2 576q0 16 53 16q52 0 52 -16v-649q0 -18 -27 -18h-171v-143q0 -10 -5 -16.5t-12 -10t-14.5 -5t-13.5 -1.5z
" />
    <glyph glyph-name="cyA" unicode="&#x410;" horiz-adv-x="566" 
d="M557 17q1 -1 1 -3q0 -14 -20 -14h-57q-28 0 -43 43l-91 247l-218 -182q-16 -76 -18 -81q-15 -32 -66 -32q-35 0 -35 27q0 12 17.5 61.5t51.5 133.5q15 36 40.5 91.5l62.5 136.5l21 46.5l28 64.5q5 17 5 30q0 37 -19 47l-42 9q-30 6 -30 23q0 18 88 18q62 0 109 -75
q35 -55 66 -158l42 -137zM335 321l-77 209q-26 -63 -55.5 -155.5t-63.5 -220.5z" />
    <glyph glyph-name="cyBE" unicode="&#x411;" horiz-adv-x="483" 
d="M476 94q0 -94 -159 -94h-205q-53 0 -53 36v609q0 34 32 34h304q38 0 50 -20q10 -14 10 -55q0 -145 -25 -145q-15 0 -36 43q-36 77 -41 85q-30 50 -65 60q-11 3 -30 5t-46 2q-32 0 -44 -15q-10 -15 -10 -46v-191q45 -19 93 -50.5t101 -77.5q124 -106 124 -180zM364 96
q0 65 -71 159q-71 93 -135 108v-296q0 -23 12 -32q10 -6 34 -6h91q29 0 48 19q21 21 21 48z" />
    <glyph glyph-name="cyVE" unicode="&#x412;" horiz-adv-x="502" 
d="M488 70q0 -37 -41 -55q-32 -15 -72 -15h-281q-35 0 -35 34v619q0 26 29 26h239q97 0 97 -62q0 -96 -216 -229q280 -198 280 -318zM328 618q0 34 -106 34h-44q-20 0 -20 -27v-214q54 0 113 77q57 73 57 130zM359 79q0 130 -129 246q-39 36 -52 36q-20 0 -20 -16v-309h142
q59 0 59 43z" />
    <glyph glyph-name="cyGE" unicode="&#x413;" horiz-adv-x="440" 
d="M399 446q-16 0 -31 51l-19 58.5t-16 35.5q-30 51 -82 51h-21q-35 0 -51 -8q-21 -12 -21 -44v-573q0 -22 -51 -22q-48 0 -48 24v639q0 21 25 21h293q37 0 49 -39q5 -18 5 -69q0 -125 -32 -125z" />
    <glyph glyph-name="cyDE" unicode="&#x414;" horiz-adv-x="711" 
d="M700 -10q0 -29 -2 -56.5t-7 -41.5q-15 -47 -61 -47q-24 0 -34 9.5t-8 25.5q3 18 5.5 48t2.5 59q0 18 -30 18h-95q-30 1 -53 1h-39h-109q-32 0 -58 -1.5t-45 -3.5q-18 -2 -27.5 -12.5t-14.5 -28.5l-8 -80q-8 -17 -18.5 -25.5t-35.5 -8.5q-15 0 -31 14q-15 13 -15 29
q0 25 -1 53.5t7 45.5q22 45 66 45q5 0 13.5 -0.5t13.5 -0.5q31 0 43 38q11 33 21 75t21 95l25 119l11 53q5 23 13 55.5t21 76.5q16 36 16 46q0 23 -33 58q2 16 26 25q19 9 38 9q68 0 163 -282q20 -58 45.5 -147t56.5 -210q13 -10 56 -10q61 0 61 -43zM479 31
q-47 247 -158 513l-14 -4l-116 -490q3 -19 21 -19h267z" />
    <glyph glyph-name="cyYE" unicode="&#x415;" horiz-adv-x="406" 
d="M393 324q0 -26 -28 -45q-26 -16 -52 -16q-9 0 -34 40q-27 40 -34 40q-15 0 -61 -26q-48 -27 -48 -40q0 -46 39 -110q43 -72 85 -72q26 0 57 23q5 4 16.5 14.5l30.5 27.5l15 -7q-4 -22 -77 -93q-74 -71 -93 -71q-69 0 -126 143q-48 120 -48 204q0 94 76 217
q84 133 172 133q27 0 62 -56q31 -50 31 -83q0 -29 -17 -46q-5 -5 -15 -13t-25 -17l-24 1q-3 43 -22 81q-24 49 -60 49q-43 0 -71 -72q-23 -58 -23 -109q0 -29 2.5 -57t7.5 -55q178 101 203 101q27 0 45 -31q16 -26 16 -55z" />
    <glyph glyph-name="cyZHE" unicode="&#x416;" horiz-adv-x="676" 
d="M674 55q0 -27 -34 -48q-30 -18 -59 -18q-22 0 -28 42l-4 60q-6 72 -49 155q-49 93 -106 119v-335q0 -37 -45 -37q-43 0 -43 34v335q-52 -28 -96 -97q-36 -60 -54 -127l-30 -119q-6 -25 -28 -25q-24 0 -52 22t-28 45q0 9 5 27t16 41q79 169 267 274q-134 53 -212 150
q-40 49 -40 80q0 16 33 34q28 17 48 17q14 0 20 -26l6 -38q5 -31 17 -59t31 -53q41 -53 97 -72v211q0 16 12.5 26.5t28.5 10.5q46 0 46 -29v-217q52 0 85 64q15 31 39 119q18 64 32 64q13 0 45 -17q34 -18 34 -30q0 -24 -33 -76q-20 -32 -41.5 -56.5t-45.5 -41.5
q-33 -24 -114 -63q194 -122 264 -283q16 -40 16 -63z" />
    <glyph glyph-name="cyZE" unicode="&#x417;" horiz-adv-x="526" 
d="M491 168q0 -60 -35 -103t-104 -60q-15 -4 -26.5 -5t-27.5 -1t-42 0.5t-69 0.5q-22 0 -39 -10q-20 -12 -20 -33q0 -4 19 -34q19 -32 19 -39q0 -28 -38 -28q-33 0 -64 39q-30 37 -30 71q0 57 31 76q23 13 84 13q6 0 19 -3.5t27.5 -8t29 -8t23.5 -3.5q56 0 94 37
q19 19 29 46.5t10 54.5q0 16 -5 33.5t-13 33.5t-18 29t-20 21q-26 19 -78 27q-47 8 -51 14q-6 9 -9 12.5t-3 16.5q0 20 5 23.5t16 8.5q10 6 40 6q60 0 88 37t28 96q0 57 -16 83q-10 17 -33 26t-49 9q-83 0 -105 -112q-1 -5 -2 -11t-4 -14q-11 -20 -56 -20q-48 0 -48 27
q0 76 68 126q61 45 141 45q98 0 151 -40.5t53 -121.5q0 -62 -24 -105.5t-82 -71.5q60 -23 98 -68t38 -112z" />
    <glyph glyph-name="cyI" unicode="&#x418;" horiz-adv-x="571" 
d="M59 655q0 24 52 24q47 0 47 -20v-460l290 363v96q0 21 50 21q49 0 49 -21v-638q0 -25 -60 -25q-39 0 -39 25v488l-290 -365v-122q0 -26 -54 -26q-45 0 -45 24v636z" />
    <glyph glyph-name="cyIKRATKOE" unicode="&#x419;" horiz-adv-x="566" 
d="M59 655q0 24 52 24q47 0 47 -20v-460l290 363v96q0 21 50 21q49 0 49 -21v-638q0 -25 -60 -25q-39 0 -39 25v488l-290 -365v-122q0 -26 -54 -26q-45 0 -45 24v636zM176 801q0 70 57 70q17 0 17 -7t-10 -23q-10 -14 -10 -23q0 -28 61 -28q25 0 56 10q34 12 50 25l25 27
q19 17 29 17t10 -10q0 -11 -13 -28q-31 -41 -73.5 -66t-98.5 -25q-51 0 -75.5 17.5t-24.5 43.5z" />
    <glyph glyph-name="cyKA" unicode="&#x41a;" horiz-adv-x="513" 
d="M514 72q-1 -22 -21 -51q-21 -30 -42 -30q-14 0 -99 106q-36 45 -60.5 79.5l-38.5 54.5q-55 80 -55 129q0 58 57 142q124 184 180 184q31 0 48 -36q14 -27 14 -63q0 -22 -9 -50q-10 -36 -26 -39l-45 56q-37 43 -50 43q-18 0 -55 -66q-38 -64 -38 -84q0 -72 92 -197
q17 -23 54 -68zM158 21q0 -26 -54 -26q-45 0 -45 24v636q0 24 52 24q47 0 47 -20v-638z" />
    <glyph glyph-name="cyEL" unicode="&#x41b;" horiz-adv-x="554" 
d="M543 15q0 -20 -47 -20q-30 0 -43 5q-17 7 -28 32l-158 369q-8 17 -18 17q-7 0 -33 -55q-31 -66 -46 -127t-15 -113q0 -13 3 -35q4 -20 4 -34q0 -40 -18 -52q-11 -7 -56 -7q-52 0 -52 37q0 29 10.5 73.5t33.5 100.5q21 53 41.5 92t40.5 65l43 52q28 35 28 56q0 19 -46 95
q-44 79 -44 92q0 22 32 22q73 0 85 -23l270 -596q13 -27 13 -46z" />
    <glyph glyph-name="cyEM" unicode="&#x41c;" horiz-adv-x="697" 
d="M671 11q0 -21 -42 -21q-57 0 -57 21l5 561l-10 -1q-35 -212 -54 -302q-51 -230 -99 -262q-22 -14 -52 -14q-68 0 -113 150q-8 25 -19 77t-26 133l-40 218h-11l5 -558q0 -21 -46 -21q-53 0 -53 21v648q0 18 19 18h86q15 0 21 -30l65 -305q48 -226 123 -226q67 0 127 286
l51 245q6 30 24 30h80q16 0 16 -18v-650z" />
    <glyph glyph-name="cyEN" unicode="&#x41d;" horiz-adv-x="571" 
d="M547 14q0 -24 -45 -24q-54 0 -54 26v132l-290 365v-498q0 -25 -45 -25q-54 0 -54 25v648q0 21 49 21q50 0 50 -21v-96l290 -363v460q0 20 47 20q52 0 52 -24v-646z" />
    <glyph glyph-name="cyO" unicode="&#x41e;" horiz-adv-x="484" 
d="M459 364q0 -195 -159 -336q-41 -35 -63 -35q-25 0 -68 42q-137 135 -137 312q0 121 103 246q76 94 126 94q19 0 62 -38q136 -123 136 -285zM384 270q0 187 -115 286q-35 30 -57 30q-43 0 -76 -60q-29 -52 -29 -99q0 -185 127 -296q38 -34 61 -34q47 0 71 67q18 48 18 106
z" />
    <glyph glyph-name="cyPE" unicode="&#x41f;" horiz-adv-x="615" 
d="M552 17q0 -18 -21 -21q-4 -1 -34 -1q-25 0 -28 1q-16 3 -16 20v599q0 31 -46 31h-215q-34 0 -34 -35l1 -601q0 -15 -49 -15q-51 0 -51 21v639q0 24 26 24h439q28 0 28 -24v-638z" />
    <glyph glyph-name="cyER" unicode="&#x420;" horiz-adv-x="455" 
d="M445 512q0 -113 -90 -180q-82 -62 -197 -62v-259q0 -21 -56 -21q-43 0 -43 21v639q0 29 64 29q131 0 205 -23q117 -39 117 -144zM349 502q0 60 -34 103q-36 48 -94 48q-63 0 -63 -30v-291q0 -34 19 -34q84 0 130 62q42 55 42 142z" />
    <glyph glyph-name="cyES" unicode="&#x421;" horiz-adv-x="414" 
d="M408 169q-113 -176 -141 -176q-74 0 -154 121q-73 112 -73 193q0 239 172 357q31 22 50 22q45 0 88 -59q41 -55 41 -101q0 -21 -21 -54q-23 -36 -42 -36q-7 0 -24 41q-21 53 -36 76q-26 41 -61 41q-37 0 -61 -66q-19 -51 -19 -99q0 -92 39 -194q48 -129 123 -129
q23 0 91 63h28z" />
    <glyph glyph-name="cyTE" unicode="&#x422;" horiz-adv-x="567" 
d="M567 585q0 -116 -33 -116q-14 0 -27 46q-16 63 -31 86q-28 46 -84 46q-43 0 -43 -52v-584q0 -21 -54 -21q-45 0 -45 23v584q0 50 -52 50q-73 0 -94 -62l-20 -63q-17 -50 -26 -50q-16 0 -25 41q-6 28 -6 58q0 88 17 100q11 8 34 8h456q33 0 33 -94z" />
    <glyph glyph-name="cyU" unicode="&#x423;" horiz-adv-x="478" 
d="M469 632q0 -14 -3 -34t-8 -39t-11.5 -32.5t-12.5 -13.5q-2 0 -10.5 10l-18.5 22t-17.5 22.5t-7.5 12.5q-4 0 -10 -15q-32 -100 -65 -214t-74 -226q-23 -66 -46.5 -104t-32.5 -38q-1 0 -8.5 3t-16 7l-16.5 7.5t-10 4.5q-11 4 -13 11.5t1 15.5t7.5 14t6.5 8q4 6 12.5 10
t19 11t22 19t21.5 33q20 42 26 69.5t6 47.5q0 3 -5 13t-16.5 29.5l-29 49.5l-41.5 74q-49 87 -74 152t-25 91q0 5 5 11.5t12.5 12t16 9t14.5 3.5q24 0 38 -21q1 -3 27 -66q38 -94 69.5 -156t55.5 -88q5 7 12.5 26.5t15.5 45l16.5 54t15 53.5t11 44t6.5 25q10 35 31.5 58
t40.5 23q24 0 43.5 -14t19.5 -41z" />
    <glyph glyph-name="cyEF" unicode="&#x424;" horiz-adv-x="702" 
d="M686 319q0 -274 -288 -278q-3 -51 -13 -100.5t-26 -100.5q-38 -116 -96 -177h-31q-12 10 -12 28v1q0 1 0.5 2t0.5 3q96 169 96 344q-125 0 -202 56q-88 65 -88 184q0 134 79 219q82 87 215 87v22q0 226 75 249q22 7 70 7q40 0 40 -23q0 -8 -25 -34l-16.5 -17l-16.5 -17
q-28 -35 -37 -89q-3 -15 -4 -39.5t-1 -58.5q118 0 198 -74q82 -76 82 -194zM594 320q0 103 -73 170q-59 53 -120 55v-460q92 0 145 74q48 66 48 161zM319 545q-89 0 -145 -77q-52 -70 -52 -161q0 -102 46 -160q53 -63 151 -62v460z" />
    <glyph glyph-name="cyHA" unicode="&#x425;" horiz-adv-x="493" 
d="M202 345q-38 -88 -57 -171.5t-19 -153.5q0 -30 -58 -30q-25 0 -32 7q-11 7 -11 32q0 34 38 126t116 232q-74 128 -110.5 196.5t-36.5 77.5q0 21 46 21q14 0 24 -4.5t16.5 -10.5t10.5 -13t7 -13l90 -168l23.5 43.5l22 40l19 32.5t13.5 21q52 77 94 77q36 0 57 -31
q18 -27 18 -66q0 -17 -2.5 -32.5t-8.5 -30.5q-14 -41 -40 -41q-5 0 -41 51q-36 52 -43 52q-5 0 -14 -11.5t-21 -32l-27 -48t-30 -59.5l226 -408q8 -13 8 -31q0 -8 -6 -8.5t-35 -0.5q-45 0 -58 25z" />
    <glyph glyph-name="cyTSE" unicode="&#x426;" horiz-adv-x="650" 
d="M634 -16q0 -49 -30 -106q-18 -33 -33 -49.5t-37 -16.5q-14 0 -30 18q-8 8 -6.5 15.5t1.5 14.5q0 20 20 60q20 43 20 64q0 16 -46 16h-404q-30 0 -30 26v632q0 22 52 22q47 0 47 -21v-590q0 -35 27 -35h212q30 0 30 40v587q0 18 33 18q66 0 66 -16v-588q0 -34 31 -40
l47 -4q30 -8 30 -47z" />
    <glyph glyph-name="cyCHE" unicode="&#x427;" horiz-adv-x="611" 
d="M307 412q59 0 114 26q66 33 66 87q0 48 -33 65l-25 10q-19 8 -19 13q0 21 25 47q24 27 44 27q42 0 74 -41q30 -38 30 -82q0 -87 -73 -142q-65 -52 -155 -52v-352q0 -28 -51 -28q-48 0 -48 28v352q-90 0 -155 52q-73 55 -73 142q0 66 63 107q23 16 41 16q20 0 44 -27
q25 -26 25 -47q0 -4 -20 -13l-25 -10q-32 -18 -32 -65q0 -56 67 -87q55 -26 116 -26z" />
    <glyph glyph-name="cySHA" unicode="&#x428;" horiz-adv-x="917" 
d="M899 21q0 -21 -30 -21h-785q-21 0 -21 21v635q0 23 35 23q64 0 64 -25v-591q0 -29 27 -29h203q33 0 33 26v590q0 20 17 26q8 4 35 4q47 0 47 -26v-593q0 -27 28 -27h221q27 0 27 26v597q0 18 22 22q3 0 12 0.5t23 0.5q42 0 42 -22v-637z" />
    <glyph glyph-name="cySHCHA" unicode="&#x429;" horiz-adv-x="918" 
d="M425 0h-341q-21 0 -21 21v635q0 23 35 23q64 0 64 -25v-591q0 -29 27 -29h203q33 0 33 26v590q0 20 17 26q8 4 35 4q47 0 47 -26v-593q0 -27 28 -27h221q27 0 27 26v597q0 18 22 22q3 0 12 0.5t23 0.5q42 0 42 -22v-637q0 -21 -30 -21h-345v-161q0 -25 -42 -25
q-57 0 -57 27v159z" />
    <glyph glyph-name="cyYOR" unicode="&#x42a;" horiz-adv-x="571" 
d="M568 125q0 -76 -60 -104q-42 -21 -127 -21h-244q-34 0 -34 23q0 7 3 16l197 563q6 16 6 34q0 10 -49 10q-124 0 -150 -58l-26 -70q-21 -51 -42 -51q-11 0 -17 27q-3 10 -4 19t-1 17v109q0 40 43 40h336q25 0 25 -23q0 -38 -31 -100q-31 -63 -31 -100q0 -7 54 -70
q66 -78 99 -126q53 -82 53 -135zM462 141q0 57 -37 146q-41 96 -80 124q-126 -359 -126 -360q0 -18 17 -18q24 0 58.5 0.5t82.5 0.5q85 1 85 107z" />
    <glyph glyph-name="cyYERU" unicode="&#x42b;" horiz-adv-x="669" 
d="M94 0q-21 0 -34 20q-12 16 -12 39v587q0 18 17 30q17 10 34 10q20 0 34 -11.5t14 -29.5v-241q350 -162 350 -314q0 -90 -112 -90h-291zM599 -11q-50 0 -50 41v613q0 20 15 31q15 12 35 12t34 -11q15 -12 15 -30v-615q0 -18 -15 -30q-16 -11 -34 -11zM299 268
q-33 32 -70.5 58.5t-81.5 47.5v-315q0 -27 25 -27h174q20 0 34 21q11 19 11 40q0 86 -92 175z" />
    <glyph glyph-name="cyYer" unicode="&#x42c;" horiz-adv-x="495" 
d="M489 79q0 -79 -148 -79h-251q-31 0 -31 21v640q0 18 64 18q35 0 35 -18v-265l99 -52q83 -44 148 -110q84 -83 84 -155zM363 92q0 83 -67 159q-22 25 -56 53t-82 60v-285q0 -45 39 -45h96q70 0 70 58z" />
    <glyph glyph-name="cyE" unicode="&#x42d;" horiz-adv-x="663" 
d="M34 166q0 55 34 55q56 0 71 -49l20.5 -66t9.5 -26q34 -49 140 -49q36 0 75 21q70 39 111 117q37 73 37 159q0 20 -71 20q-117 1 -173 1t-51 0q-16 0 -16 -8q0 -5 2 -12t2 -12q0 -40 -53 -40q-38 0 -51 13q-16 13 -16 50q0 40 42 40l366 -5q21 0 21 24q0 66 -45 147
q-62 113 -180 113q-62 0 -104 -43q-13 -14 -55 -80q-27 -43 -55 -43q-16 0 -29 16q-10 15 -10 32q0 68 86 110q70 35 146 35q170 0 271 -115q89 -103 89 -227t-58 -205q-50 -68 -129 -107q-78 -39 -164 -39q-87 0 -167 43q-96 51 -96 130z" />
    <glyph glyph-name="cyYU" unicode="&#x42e;" horiz-adv-x="772" 
d="M158 378v-367q0 -21 -53 -21q-46 0 -46 21v655q0 21 38 21q61 0 61 -21v-250h182q8 35 28.5 76t55.5 89q77 106 137 106q22 0 62 -37q136 -125 136 -286q0 -191 -159 -336q-38 -35 -63 -35q-26 0 -68 42q-137 135 -137 314q0 7 0.5 14t0.5 15h-175zM684 270
q0 187 -115 286q-35 30 -58 30q-43 0 -76 -60q-28 -53 -28 -99q0 -183 127 -296q38 -34 60 -34q48 0 72 66q18 49 18 107z" />
    <glyph glyph-name="afii10049" unicode="&#x42f;" horiz-adv-x="476" 
d="M414 0q-25 -1 -43 1t-21 16v328q0 16 -20 16q-13 0 -53 -36q-32 -29 -53 -59t-34 -60.5t-20 -62.5t-12 -64l-2 -71q-15 -6 -29 -6.5t-29 -1.5q-23 -1 -36 -3t-13 16q0 20 4 48.5t14 62.5t27.5 70.5t45.5 71.5t67.5 66.5t92.5 55.5q-63 27 -106.5 56.5t-71.5 59.5
t-40.5 58.5t-12.5 54.5q0 62 97 62h253q30 0 30 -26v-619q0 -34 -35 -34zM165 618q0 -56 56 -130q30 -38 65.5 -57.5t63.5 -19.5v214q0 27 -20 27h-44q-54 0 -87.5 -8.5t-33.5 -25.5z" />
    <glyph glyph-name="CYa" unicode="&#x430;" horiz-adv-x="460" 
d="M455 10q0 -20 -47 -20q-37 0 -44 13l-59 105q-17 -23 -44.5 -43.5t-58 -37t-61 -26t-54.5 -9.5q-22 0 -39 22t-17 50q0 24 17.5 60.5t43 74.5t54.5 72.5t52 54.5q-39 59 -50.5 92.5t-11.5 38.5q0 10 54 10q49 0 55 -11l201 -415q9 -15 9 -31zM213 302
q-12 -11 -28.5 -33.5t-32 -48.5t-26 -51t-10.5 -41q0 -51 50 -51q35 0 70 14t58 42z" />
    <glyph glyph-name="CYbe" unicode="&#x431;" horiz-adv-x="440" 
d="M430 90q0 -47 -47 -70q-36 -20 -88 -20h-210q-24 0 -24 26v409q0 22 21 22h278q43 0 43 -57q0 -106 -32 -106q-10 0 -30 35q-24 46 -41 65q-32 35 -75 35q-74 0 -74 -34v-95q48 -18 90 -37.5t78 -42.5q111 -68 111 -130zM321 100q0 38 -65 105q-66 66 -104 66v-197
q0 -16 11 -28t26 -12h66q66 0 66 66z" />
    <glyph glyph-name="CYve" unicode="&#x432;" horiz-adv-x="425" 
d="M414 72q0 -46 -31 -62q-20 -10 -73 -10h-222q-27 0 -27 26v407q0 24 26 24h197q37 0 66 -13q39 -17 39 -48q0 -49 -67 -89q-51 -32 -111 -45q71 -35 124 -78q79 -61 79 -112zM274 380q0 23 -24 37q-23 12 -46 12q-53 0 -53 -58v-88q44 0 82 25q41 29 41 72zM305 75
q0 47 -55 106q-57 60 -101 61v-159q0 -58 90 -58q66 0 66 50z" />
    <glyph glyph-name="CYge" unicode="&#x433;" horiz-adv-x="409" 
d="M397 368q0 -32 -6 -66q-8 -49 -24 -49q-19 0 -58 100q-21 52 -36 63q-16 11 -70 11q-52 0 -52 -37l1 -385q0 -15 -43 -15q-48 0 -48 20v424q0 23 18 23h271q47 0 47 -89z" />
    <glyph glyph-name="CYde" unicode="&#x434;" horiz-adv-x="568" 
d="M480 -146q-15 0 -26 11t-11 25q0 15 6 47q3 15 2 26.5t-1 19.5q0 25 -36 25q-6 0 -9.5 -0.5t-8 -1t-10.5 -2t-18 -2.5l-40.5 -3.5t-28.5 -1.5q-9 0 -13 0.5t-9 1t-13.5 1l-26.5 1.5t-28.5 1.5t-18.5 1t-14 1t-15 0.5q-26 0 -41 -41l-16 -74q-15 -41 -42 -41
q-19 0 -25.5 28.5t-6.5 86.5q0 54 13 73.5t39 19.5q9 0 24 -5t23 -5q7 0 12.5 30t25.5 92l28 84.5l40 118.5q-24 33 -24 42q0 16 28 34q26 17 43 17q11 0 30 -36.5l57 -111.5q9 -17 15 -42l14 -58.5t19.5 -75.5t29.5 -92q7 -5 15 -5q11 0 17 5.5t16 5.5q31 0 41 -13
q7 -11 7 -42q0 -21 -2 -43t-12 -45q-12 -29 -22 -43.5t-27 -14.5zM256 341q-26 -57 -43 -131.5l-40 -168.5q16 -3 28 -5.5t23.5 -4t22.5 -2t25 -0.5q15 0 24.5 0.5t18 2l17 3t22.5 4.5q-14 45 -23 86.5t-18.5 79.5t-22.5 72t-34 64z" />
    <glyph glyph-name="CYye" unicode="&#x435;" horiz-adv-x="322" 
d="M33 244q0 64 60 141q62 80 125 80q20 0 44 -33q25 -32 25 -53q0 -23 -18 -45q-17 -21 -40 -23q-27 42 -31 46q-22 31 -41 31q-20 0 -32 -35q-3 -13 -5 -25.5t-2 -26.5q0 -75 19 -75q17 0 67 24q49 23 71 23q8 0 22 -21q14 -22 14 -29q0 -17 -18 -33q-18 -15 -34 -15
q-5 0 -28 23q-21 24 -29 24q-17 0 -37 -14q-22 -15 -22 -32q0 -28 20 -62q21 -40 46 -40q35 0 74 30l9 -13q-19 -34 -55 -64q-41 -35 -74 -35q-47 0 -92 104q-38 91 -38 148z" />
    <glyph glyph-name="CYzhe" unicode="&#x436;" horiz-adv-x="598" 
d="M304 -10q-42 0 -42 22v230q-15 0 -31 -11.5t-30.5 -31.5t-26 -46t-18.5 -54q-14 -60 -22.5 -84.5t-19.5 -24.5t-26 6.5t-28.5 16.5t-23 21.5t-9.5 20.5q0 20 23 55.5t57.5 70.5t76 60.5t78.5 25.5v13q-25 0 -57.5 14t-62 36t-50 48t-20.5 49q0 7 6 13.5t16 11.5t22 8
t23 3q7 0 23 -49q16 -51 40.5 -78t59.5 -27v136q0 17 42 17q48 0 48 -15v-138q34 0 58.5 26.5t40.5 75.5q17 52 24 52q10 0 21.5 -2.5t21.5 -7.5t17 -11.5t7 -14.5q0 -24 -19 -50t-47.5 -47.5t-62 -35.5t-61.5 -14v-13q45 0 91 -33.5t95 -91.5q49 -60 49 -87q0 -11 -9 -22
t-22 -21t-28.5 -16t-27.5 -6t-28 63q-14 51 -27 87t-27 58.5t-30 33t-36 10.5v-232q0 -20 -48 -20z" />
    <glyph glyph-name="CYze" unicode="&#x437;" horiz-adv-x="388" 
d="M363 114q0 -60 -36 -87t-117 -27h1h-5q-3 0 -8.5 0.5t-14.5 0.5q-69 0 -69 -31q25 -46 25 -49q0 -10 -16 -14.5t-29 -4.5q-12 0 -23.5 7.5t-21 18.5t-15 24t-5.5 25q0 33 16 46.5t64 13.5q7 0 20 -1.5l27 -3t26 -2.5t17 -1q18 0 33.5 7t27 19t18 28t6.5 33q0 51 -32 69
q-1 0 -15.5 4t-43.5 10q-16 4 -24 8t-8 19q0 32 32 40q18 4 34 6t28 9.5t18.5 23.5t6.5 46q0 39 -21 59t-54 20q-16 0 -36.5 -7t-27.5 -21l-15 -51q-6 -14 -14 -20.5t-23 -6.5q-17 0 -30.5 8.5t-13.5 25.5q0 22 4.5 37.5t28.5 30.5q10 6 25.5 12.5t32 11.5t32.5 8t27 3
q71 0 115.5 -29t44.5 -83q0 -43 -17 -73t-57 -48q42 -16 62 -42t20 -72z" />
    <glyph glyph-name="CYi" unicode="&#x438;" horiz-adv-x="442" 
d="M61 447q0 18 47 18q43 0 43 -20v-275l173 177v100q0 18 44 18q46 0 46 -22v-435q0 -18 -57 -18q-33 0 -33 21v295l-173 -178v-122q0 -16 -47 -16q-43 0 -43 16v441z" />
    <glyph glyph-name="CYikratkoe" unicode="&#x439;" horiz-adv-x="442" 
d="M61 445q0 18 47 18q43 0 43 -20v-273l173 177v98q0 18 44 18q46 0 46 -22v-433q0 -18 -57 -18q-33 0 -33 21v295l-173 -178v-122q0 -16 -47 -16q-43 0 -43 16v439zM119 566q0 70 57 70q16 0 16 -7q0 -8 -10 -22q-10 -17 -10 -24q0 -27 61 -27q26 0 56 10q34 10 50 25
l26 26q17 17 28 17t11 -9q0 -10 -13 -28q-31 -42 -74 -66.5t-99 -24.5q-50 0 -74.5 17.5t-24.5 42.5z" />
    <glyph glyph-name="CYka" unicode="&#x43a;" horiz-adv-x="486" 
d="M486 86q0 -19 -47 -57q-46 -37 -67 -37q-25 0 -114 104q-89 106 -89 132q0 32 96 134q96 103 126 103q32 0 50 -25q16 -22 16 -55q0 -9 -1.5 -20t-5.5 -22q-9 -31 -23 -31q-2 0 -39 29t-48 29q-22 0 -52 -35q-29 -35 -29 -58q0 -31 68 -113q69 -81 99 -81q11 0 42 20
q18 1 18 -17zM151 8q0 -18 -48 -18q-42 0 -42 19v433q0 20 45 20t45 -19v-435z" />
    <glyph glyph-name="CYel" unicode="&#x43b;" horiz-adv-x="471" 
d="M451 5q0 -15 -33 -15q-59 0 -65 15l-136 299q-41 -50 -66 -138q-11 -38 -16 -81t-5 -81q0 -14 -61 -14q-49 0 -49 27q0 10 10.5 41.5t31.5 75.5q52 108 139 195q-29 53 -44.5 84.5t-15.5 33.5q0 18 61 18q31 0 49 -18q5 -5 31 -62l74 -159t71.5 -159t23.5 -62z" />
    <glyph glyph-name="CYem" unicode="&#x43c;" horiz-adv-x="573" 
d="M547 13q0 -17 -14 -22q-4 -1 -29 -1q-26 0 -29 1q-17 5 -17 21l10 356h-19q-33 -377 -157 -377q-68 0 -108 159q-8 29 -17 83t-21 135h-17l10 -358q0 -20 -61 -20q-29 0 -29 20v428q0 19 21 19h74q23 0 30 -25l33 -183q30 -133 91 -133q66 0 96 123q5 22 11.5 66
t13.5 110q4 42 29 42h81q18 0 18 -19v-425z" />
    <glyph glyph-name="CYen" unicode="&#x43d;" horiz-adv-x="437" 
d="M396 5q0 -15 -35 -15q-51 0 -51 16v140l-166 169v-305q0 -20 -41 -20q-44 0 -44 17v435q0 21 44 21q41 0 41 -17v-91l166 -169v258q0 19 41 19q45 0 45 -17v-441z" />
    <glyph glyph-name="CYo" unicode="&#x43e;" horiz-adv-x="329" 
d="M315 243q0 -62 -44 -150q-51 -99 -106 -99q-28 0 -76 57q-58 70 -58 168q0 47 48 143q51 103 92 103q24 0 64 -40q80 -78 80 -182zM243 171q0 102 -45 159q-34 43 -67 43t-33 -111q0 -97 62 -151q24 -21 37 -21q46 0 46 81z" />
    <glyph glyph-name="CYpe" unicode="&#x43f;" horiz-adv-x="443" 
d="M411 7q0 -17 -46 -17q-44 0 -44 17v382q0 33 -28 33h-126q-31 0 -31 -32v-383q0 -16 -48 -16q-42 0 -42 17v427q0 19 17 19h330q18 0 18 -27v-420z" />
    <glyph glyph-name="CYer" unicode="&#x440;" horiz-adv-x="349" 
d="M333 277q0 -126 -119 -237q-20 -18 -27 -23q-13 -12 -30 -17q7 -106 10 -161.5t3 -60.5q0 -80 -49 -142q-34 -43 -61 -43q-22 0 -22 14q51 63 51 162q0 14 -5 66.5t-15 143.5q-7 60 -10 110.5t-3 95.5q0 79 46 171q54 109 124 109q27 0 62 -42q45 -56 45 -146zM247 252
q0 101 -83 137q-26 -65 -26 -123q0 -12 15 -222q45 0 72 85q22 65 22 123z" />
    <glyph glyph-name="CYes" unicode="&#x441;" horiz-adv-x="281" 
d="M268 104q0 -9 -51 -61q-50 -51 -59 -51q-23 0 -59 42q-68 82 -68 199q0 75 61 157q54 74 85 74q33 0 60 -43q23 -38 23 -74q0 -15 -11 -34q-15 -21 -28 -21l-36 53q-28 37 -45 37q-38 0 -38 -124q0 -41 27 -101q31 -69 67 -69q5 0 58 30q14 2 14 -14z" />
    <glyph glyph-name="CYte" unicode="&#x442;" horiz-adv-x="491" 
d="M485 361q0 -96 -32 -96q-20 0 -32 41q-21 71 -24 76q-20 41 -56 41q-46 0 -46 -37v-378q0 -18 -44 -18q-46 0 -46 18v375q0 43 -41 43q-33 0 -53 -41q-6 -20 -12.5 -38.5l-13.5 -38.5q-15 -41 -38 -41q-22 0 -22 109q0 45 5 56q9 25 45 25h357q21 0 29 -4q24 -11 24 -92z
" />
    <glyph glyph-name="CYu" unicode="&#x443;" horiz-adv-x="487" 
d="M471 420q-3 -54 -7.5 -84.5t-9.5 -43t-11.5 -10.5t-13.5 12.5t-15.5 26.5t-18 30.5t-20.5 24.5t-23 10q-7 0 -18 -19t-22 -60t-19.5 -107t-10.5 -159q-4 -70 -6 -114.5t-4.5 -73t-5.5 -46t-9 -35t-15.5 -40t-23.5 -60.5q-5 -13 -14 -23t-18.5 -16t-19.5 -8.5t-16 -0.5
q-14 5 -19 11.5t-6 13.5t0.5 13t1.5 9l51.5 83t32 66t16.5 67.5t5 88.5q0 5 -0.5 15t-0.5 15q-6 1 -13 2.5t-16 7.5t-20 17.5t-25 32.5q-35 51 -57.5 101.5t-35.5 96t-18 83.5t-5 64q0 20 24 41q12 10 16.5 12.5t15.5 2.5q8 0 22 -41q9 -28 15.5 -60.5l12.5 -63l11 -55.5
t11 -37q30 -61 71 -104v40q0 20 2.5 46t8 54t14 56t20.5 51q54 109 124 109q27 0 62 -42z" />
    <glyph glyph-name="CYef" unicode="&#x444;" horiz-adv-x="695" 
d="M686 229q0 -103 -100 -155q-80 -42 -192 -42q-33 -340 -149 -433q-30 -24 -62 -24q-1 1 -2 1q-2 0 -4 1q76 94 103 214q21 88 21 237q-109 0 -183 43q-93 52 -93 152q0 102 94 157q76 46 186 46v186q0 111 72 164q28 20 47 20q42 0 42 -20q0 -8 -12 -19t-22 -27l-30 -43
q-12 -21 -10.5 -84t1.5 -169v-5q163 0 236 -73q57 -57 57 -127zM570 235q0 61 -59 109q-55 44 -118 44v-322q69 0 124 49q53 50 53 120zM305 388q-69 0 -121 -46q-55 -46 -55 -115q0 -70 54 -116q51 -45 122 -45v322z" />
    <glyph glyph-name="CYha" unicode="&#x445;" horiz-adv-x="460" 
d="M249 241q216 -380 216 -387q0 -12 -30 -12q-69 0 -85 30l-152 262q-34 -71 -65.5 -150t-61.5 -167q-37 -109 -60 -109q-24 0 -24 23q0 57 192 435l-162 283q7 15 56 15q52 0 62 -19l97 -176l66 117q46 79 93 79q55 0 55 -84q0 -34 -17 -71q-20 -45 -50 -45q-5 0 -23 52
q-18 53 -22 53q-21 0 -85 -129z" />
    <glyph glyph-name="CYtse" unicode="&#x446;" horiz-adv-x="524" 
d="M514 -5q0 -133 -86 -133q-13 0 -25 12t-10 19q6 16 11 34.5t5 40.5q0 32 -29 32h-295q-24 0 -24 31v407q0 26 43 26q47 0 47 -23v-386q0 -24 22 -24h148q22 0 22 22v385q0 18 15 24q10 2 30 2q23 0 31 -3q14 -6 14 -26v-388q0 -8 10 -12.5t41 -9.5q30 -5 30 -30z" />
    <glyph glyph-name="CYche" unicode="&#x447;" horiz-adv-x="464" 
d="M244 279q130 0 130 77q0 23 -57 69q0 13 19 27q19 13 32 13q35 0 62 -24q29 -24 29 -59q0 -63 -57 -100q-50 -32 -116 -32v-242q0 -19 -45 -19q-42 0 -42 19v242q-70 0 -118 30q-56 35 -56 102q0 33 29 59q28 24 63 24q11 0 25 -15q13 -15 15 -27q-46 -43 -46 -67
q0 -77 133 -77z" />
    <glyph glyph-name="CYsha" unicode="&#x448;" horiz-adv-x="711" 
d="M81 0q-20 0 -20 19v425q0 18 46 18q44 0 44 -18v-387q0 -25 23 -25h127q25 0 25 24v383q0 23 45 23t45 -20v-386q0 -24 24 -24h131q21 0 21 22v388q0 20 45 20q44 0 44 -24v-413q0 -25 -17 -25h-583z" />
    <glyph glyph-name="CYshcha" unicode="&#x449;" horiz-adv-x="707" 
d="M416 0v-153q0 -19 -43 -19q-47 0 -47 25v147h-245q-20 0 -20 19v426q0 18 46 18q44 0 44 -18v-388q0 -25 23 -25h127q25 0 25 24v384q0 23 45 23t45 -20v-387q0 -24 24 -24h131q21 0 21 22v389q0 20 45 20q44 0 44 -24v-414q0 -25 -17 -25h-248z" />
    <glyph glyph-name="CYyor" unicode="&#x44a;" horiz-adv-x="528" 
d="M525 66q0 -30 -36 -49q-31 -17 -62 -17h-274q-21 0 -21 21q0 6 4 15l78 200q65 168 65 175q0 26 -60 26q-75 0 -102 -63l-23 -54q-20 -38 -36 -38q-25 0 -25 107q0 73 37 73h300q21 0 21 -13q0 -6 -64 -176q198 -98 198 -207zM416 104q0 43 -31 87q-33 50 -72 52
q-73 -190 -73 -194q0 -17 23 -17h89q26 0 45 22t19 50z" />
    <glyph glyph-name="CYyeru" unicode="&#x44b;" horiz-adv-x="615" 
d="M423 72q0 -72 -127 -72h-210q-21 0 -21 17v430q0 15 46 15q44 0 44 -15v-162q93 -32 165 -78q103 -66 103 -135zM319 77q0 46 -61 104q-55 55 -103 70v-191q0 -12 9 -21t21 -9h84q20 0 35 13.5t15 33.5zM589 10q0 -17 -61 -17q-29 0 -29 17v433q0 19 45 19t45 -18v-434z
" />
    <glyph glyph-name="CYyer" unicode="&#x44c;" horiz-adv-x="444" 
d="M436 75q0 -75 -132 -75h-219q-21 0 -21 18v431q0 16 47 16q46 0 46 -15v-153q49 -17 91.5 -36.5t80.5 -44.5q107 -69 107 -141zM328 80q0 44 -64 107q-61 59 -107 75v-199q0 -13 9.5 -22.5t22.5 -9.5h87q21 0 36.5 14t15.5 35z" />
    <glyph glyph-name="CYe" unicode="&#x44d;" horiz-adv-x="510" 
d="M45 345q0 53 71 89q59 31 119 31q99 0 175 -59q81 -63 81 -161q0 -110 -74 -181q-75 -73 -182 -73q-90 0 -155 53q-33 27 -33 47q0 21 16 36q16 16 37 16q6 0 27 -28q28 -36 51 -53q38 -28 86 -28q67 0 102 70q28 56 28 131q-48 6 -103 6h-67q2 -31 -10 -42.5t-43 -11.5
q-32 0 -44 6q-17 11 -17 39q0 38 59 38q36 0 113 -3q38 -2 66 -3t46 -1q0 62 -39 112q-42 54 -103 54q-52 0 -85 -30q-19 -14 -43 -54q-18 -30 -29 -30q-50 0 -50 30z" />
    <glyph glyph-name="CYyu" unicode="&#x44e;" horiz-adv-x="565" 
d="M156 256v-246q0 -17 -54 -17q-44 0 -44 17v435q0 17 46 17q51 0 51 -15v-162h130q25 84 95 155q28 28 36 28q25 0 65 -40q80 -78 80 -184q0 -62 -45 -152q-52 -100 -107 -100q-26 0 -75 58q-60 70 -60 170q0 9 1 18.5t3 17.5h-122zM488 171q0 104 -45 161q-35 44 -67 44
q-34 0 -34 -113q0 -99 63 -153q23 -20 37 -20q46 0 46 81z" />
    <glyph glyph-name="afii10097" unicode="&#x44f;" horiz-adv-x="403" 
d="M162 380q0 -43 41 -72q37 -25 82 -25v88q0 58 -53 58q-24 0 -45 -12q-25 -13 -25 -37zM87 -4q-16 8 -21 23t-5 38q0 28 15 57.5t39 57.5t53 51.5t57 38.5q-60 13 -111 45q-34 20 -45.5 42.5t-11.5 46.5q0 18 8.5 30t22.5 18.5t30.5 9.5t33.5 3h197q26 0 26 -24v-415
q0 -26 -27 -26q-34 -4 -48 3.5t-13 24.5v222q-23 -1 -41 -16.5t-45 -44.5q-14 -15 -22 -31.5t-12.5 -32.5t-7 -30.5l-4.5 -25.5l1 -52q-8 -11 -24 -15t-45 2z" />
    <glyph glyph-name="uni0450" unicode="&#x450;" horiz-adv-x="322" 
d="M33 244q0 64 60 141q62 80 125 80q20 0 44 -33q25 -32 25 -53q0 -23 -18 -45q-17 -21 -40 -23q-27 42 -31 46q-22 31 -41 31q-20 0 -32 -35q-3 -13 -5 -25.5t-2 -26.5q0 -75 19 -75q17 0 67 24q49 23 71 23q8 0 22 -21q14 -22 14 -29q0 -17 -18 -33q-18 -15 -34 -15
q-5 0 -28 23q-21 24 -29 24q-17 0 -37 -14q-22 -15 -22 -32q0 -28 20 -62q21 -40 46 -40q35 0 74 30l9 -13q-19 -34 -55 -64q-41 -35 -74 -35q-47 0 -92 104q-38 91 -38 148zM184 517l-97 159h103l29 -160z" />
    <glyph glyph-name="afii10071" unicode="&#x451;" horiz-adv-x="322" 
d="M33 244q0 64 60 141q62 80 125 80q20 0 44 -33q25 -32 25 -53q0 -23 -18 -45q-17 -21 -40 -23q-27 42 -31 46q-22 31 -41 31q-20 0 -32 -35q-3 -13 -5 -25.5t-2 -26.5q0 -75 19 -75q17 0 67 24q49 23 71 23q8 0 22 -21q14 -22 14 -29q0 -17 -18 -33q-18 -15 -34 -15
q-5 0 -28 23q-21 24 -29 24q-17 0 -37 -14q-22 -15 -22 -32q0 -28 20 -62q21 -40 46 -40q35 0 74 30l9 -13q-19 -34 -55 -64q-41 -35 -74 -35q-47 0 -92 104q-38 91 -38 148zM149 545q0 -34 -42 -34q-44 0 -44 35v68q0 32 44 32q42 0 42 -35v-66zM295 545q0 -34 -44 -34
q-41 0 -41 35v68q0 32 41 32q44 0 44 -35v-66z" />
    <glyph glyph-name="CYdje" unicode="&#x452;" horiz-adv-x="476" 
d="M175 475v-135l42 26.5t32 17t31 9t38 2.5q31 0 54 -9.5t38.5 -25.5t23.5 -37t8 -45v-278q0 -23 -12.5 -48t-30.5 -45.5t-38.5 -34t-35.5 -13.5q-14 0 -19.5 8t-5.5 16q0 3 4 7t9.5 8.5t11.5 8t10 5.5q17 8 22.5 34t5.5 64v21t-0.5 45.5t-0.5 57t-0.5 57t-0.5 44v19.5
q0 18 -5 35.5t-14.5 31.5t-23.5 22.5t-31 8.5q-35 0 -63 -12.5t-49 -28.5v-301q0 -19 -44 -19q-45 0 -45 19v465h-78q-6 23 0 47h78q0 7 -0.5 26.5t-0.5 39.5t-0.5 37t-0.5 20q0 27 44 27q26 0 36.5 -7.5t10.5 -22.5q0 -4 0.5 -10t-0.5 -14v-96h115q4 -10 5 -20.5t-5 -26.5
h-115z" />
    <glyph glyph-name="afii10100" unicode="&#x453;" horiz-adv-x="409" 
d="M397 368q0 -32 -6 -66q-8 -49 -24 -49q-19 0 -58 100q-21 52 -36 63q-16 11 -70 11q-52 0 -52 -37l1 -385q0 -15 -43 -15q-48 0 -48 20v424q0 23 18 23h271q47 0 47 -89zM180 516l28 160h104l-97 -159z" />
    <glyph glyph-name="CYUAye" unicode="&#x454;" horiz-adv-x="510" 
d="M491 345q0 -30 -50 -30q-11 0 -29 30q-24 39 -42 54q-35 30 -86 30q-61 0 -103 -54q-39 -50 -39 -112q19 0 46.5 1t65.5 3q75 3 113 3q59 0 59 -38q0 -28 -17 -39q-12 -6 -44 -6q-31 0 -43 11.5t-10 42.5h-67q-55 0 -103 -6q0 -75 28 -131q35 -70 102 -70q48 0 86 28
q23 17 51 53q21 28 27 28q21 0 37 -16t16 -36t-33 -47q-65 -53 -155 -53q-107 0 -182 73q-74 71 -74 181q0 98 81 161q76 59 175 59q58 0 119 -31q71 -36 71 -89z" />
    <glyph glyph-name="CYdze" unicode="&#x455;" horiz-adv-x="458" 
d="M328 308q1 6 1 12v12q0 105 -88 105q-40 0 -65 -31q-23 -29 -23 -70q0 -34 18 -62q22 -33 53 -33q19 0 58 6t58 6q51 0 78 -34q25 -31 25 -84q0 -144 -153 -144q-24 0 -65 22q-2 1 -59 38q-22 0 -35 -30q-14 -30 -52 -30q-31 0 -42 8q-14 8 -14 42q0 33 27 57
q25 22 60 22q21 0 88 -43q68 -43 93 -43q28 0 46 34q15 27 15 59q0 88 -55 88q-6 0 -15.5 -0.5t-22.5 -1.5q-12 -1 -21.5 -1h-15.5q-159 0 -159 119q0 64 62 102q52 33 120 33q75 0 122 -31q56 -36 56 -107q0 -20 -95 -20z" />
    <glyph glyph-name="CYUAi" unicode="&#x456;" horiz-adv-x="231" 
d="M159 9q0 -17 -33 -17h-29q-24 0 -24 17v435q0 18 31 18h22q33 0 33 -18v-435z" />
    <glyph glyph-name="CYUAyi" unicode="&#x457;" horiz-adv-x="231" 
d="M85 545q0 -34 -42 -34q-43 0 -43 35v68q0 32 43 32q42 0 42 -35v-66zM232 545q0 -34 -45 -34q-41 0 -41 35v68q0 32 41 32q45 0 45 -35v-66zM159 10q0 -17 -33 -17h-29q-24 0 -24 17v434q0 17 31 17h22q33 0 33 -17v-434z" />
    <glyph glyph-name="afii10105" unicode="&#x458;" horiz-adv-x="197" 
d="M166 242q0 -252 -103 -423q-35 -59 -57 -59q-13 0 -13 15q0 13 15 42t28 62q20 60 29 136t9 170q0 39 -1 76.5t-4 69.5q0 2 -1.5 13.5t-3 26.5l-3 30t-1.5 24q0 14 6 22t15.5 12.5t21.5 5.5t23 1q8 0 15.5 -21.5t13 -54.5t8.5 -72.5t3 -75.5zM139 560q0 -34 -44 -34
q-41 0 -41 35v68q0 32 41 32q44 0 44 -36v-65z" />
    <glyph glyph-name="afii10106" unicode="&#x459;" horiz-adv-x="733" 
d="M710 75q0 -75 -132 -75h-219q-21 0 -21 18v407h-138q0 -17 -0.5 -45t-0.5 -55q-1 -32 -1 -66q0 -44 -14 -91t-34.5 -86t-44.5 -64t-43 -25q-17 0 -26.5 8.5t-9.5 16.5q0 26 10 37t31 15q16 3 26.5 20.5t16.5 43t8 55t2.5 56.5t-0.5 47.5t-2 28.5q0 3 -0.5 14.5t-1.5 26.5
t-1.5 30t-0.5 25q0 27 16.5 34t39.5 7h218v-1q43 -1 43 -16v-144q61 -20 112.5 -46t88.5 -55.5t57.5 -60t20.5 -60.5zM602 80q0 44 -64 107q-61 59 -107 75v-199q0 -13 9.5 -22.5t22.5 -9.5h87q21 0 36.5 14t15.5 35z" />
    <glyph glyph-name="afii10107" unicode="&#x45a;" horiz-adv-x="715" 
d="M704 75q0 -75 -132 -75h-219q-21 0 -21 18v246h-198v-252q0 -17 -32 -17h-30q-23 0 -23 17v432q0 18 30 18h23q32 0 32 -18v-148h198v150q0 16 47 16q46 0 46 -15v-150q49 -17 91.5 -36.5t80.5 -44.5q107 -69 107 -141zM596 80q0 44 -64 107q-61 59 -107 75v-199
q0 -13 9.5 -22.5t22.5 -9.5h87q21 0 36.5 14t15.5 35z" />
    <glyph glyph-name="afii10108" unicode="&#x45b;" horiz-adv-x="527" 
d="M177 473v-128l46.5 28.5t31 16.5t27.5 8t36 2q25 0 47.5 -8t39.5 -22t27 -32.5t10 -39.5v-217q0 -5 1.5 -13t4.5 -15.5t7 -13t9 -5.5q4 0 13.5 4.5t19.5 10l18.5 10t10.5 4.5l3 -6q0 -30 -30 -48t-75 -18q-15 0 -28 7.5t-22.5 20t-14.5 28.5t-5 33v181q0 46 -16.5 71
t-50.5 25q-35 0 -62 -10t-48 -26v-311q0 -19 -46 -19q-45 0 -45 19v463h-78q-10 25 0 47h78v16.5t-0.5 31.5t-0.5 32v19q-1 8 -1 14.5v10.5q0 27 44 27q50 0 50 -30v-10t-1 -14v-97h113q14 -25 0 -47h-113z" />
    <glyph glyph-name="afii10109" unicode="&#x45c;" horiz-adv-x="486" 
d="M486 86q0 -19 -47 -57q-46 -37 -67 -37q-25 0 -114 104q-89 106 -89 132q0 32 96 134q96 103 126 103q32 0 50 -25q16 -22 16 -55q0 -9 -1.5 -20t-5.5 -22q-9 -31 -23 -31q-2 0 -39 29t-48 29q-22 0 -52 -35q-29 -35 -29 -58q0 -31 68 -113q69 -81 99 -81q11 0 42 20
q18 1 18 -17zM151 8q0 -18 -48 -18q-42 0 -42 19v433q0 20 45 20t45 -19v-435zM219 521l29 155h103l-97 -159z" />
    <glyph glyph-name="uni045D" unicode="&#x45d;" horiz-adv-x="442" 
d="M61 445q0 18 47 18q43 0 43 -20v-273l173 177v98q0 18 44 18q46 0 46 -22v-432q0 -18 -57 -18q-33 0 -33 21v294l-173 -178v-121q0 -16 -47 -16q-43 0 -43 16v438zM228 517l-97 159h103l29 -160z" />
    <glyph glyph-name="afii10110" unicode="&#x45e;" horiz-adv-x="487" 
d="M122 581q0 69 57 69q16 0 16 -6q0 -9 -10 -23q-10 -17 -10 -23q0 -28 61 -28q26 0 56 10q34 10 50 25l26 26q16 17 28 17q11 0 11 -9t-13 -28q-31 -41 -74 -66t-99 -25q-50 0 -74.5 17.5t-24.5 43.5zM471 420q-3 -54 -7.5 -84.5t-9.5 -43t-11.5 -10.5t-13.5 12.5
t-15.5 26.5t-18 30.5t-20.5 24.5t-23 10q-7 0 -18 -19t-22 -60t-19.5 -107t-10.5 -159q-4 -70 -6 -114.5t-4.5 -73t-5.5 -46t-9 -35t-15.5 -40t-23.5 -60.5q-5 -13 -14 -23t-18.5 -16t-19.5 -8.5t-16 -0.5q-14 5 -19 11.5t-6 13.5t0.5 13t1.5 9l51.5 83t32 66t16.5 67.5
t5 88.5q0 5 -0.5 15t-0.5 15q-6 1 -13 2.5t-16 7.5t-20 17.5t-25 32.5q-35 51 -57.5 101.5t-35.5 96t-18 83.5t-5 64q0 20 24 41q12 10 16.5 12.5t15.5 2.5q8 0 22 -41q9 -28 15.5 -60.5l12.5 -63l11 -55.5t11 -37q30 -61 71 -104v40q0 20 2.5 46t8 54t14 56t20.5 51
q54 109 124 109q27 0 62 -42z" />
    <glyph glyph-name="CYdzhe" unicode="&#x45f;" horiz-adv-x="484" 
d="M296 0l6 -138h-89l6 138h-148v454h83v-428h207v429h83v-455h-148z" />
    <glyph glyph-name="cyOMEGA" unicode="&#x460;" horiz-adv-x="814" 
d="M801 504q0 -54 -14.5 -114t-43.5 -126q-20 -43 -49 -97.5t-69 -120.5q-32 -53 -65 -53q-10 0 -18 14.5t-15 37t-13 50t-10.5 52.5t-8.5 45t-7 28q-9 25 -15 47l-10.5 40t-8.5 32t-11 24q-42 -39 -100 -160l-66 -180q-17 -30 -33 -30q-19 0 -66 67q-130 185 -130 407
q0 214 66 214t66 -28q0 -19 -9 -49q-7 -22 -10 -33.5t-4 -13.5q-6 -27 -6 -86q0 -77 13.5 -146.5t41.5 -129.5q33 -72 59 -72q3 0 7 9t11.5 27.5t20.5 46t33 64.5q83 151 83 181q0 17 -0.5 45t-20.5 69q-41 85 -41 99q0 17 43 17q23 0 34.5 -5t22.5 -16q16 -16 28.5 -50
t24.5 -85.5t24.5 -121l27.5 -156.5q4 -21 12.5 -37t18 -26.5t18.5 -16t14 -5.5q26 0 61 113q32 104 32 142q0 58 -18 123l-19.5 58l-18.5 58q0 2 -0.5 2.5t-0.5 2.5q0 20 44 20q40 0 61 -16q34 -28 34 -161z" />
    <glyph glyph-name="CYomega" unicode="&#x461;" horiz-adv-x="639" 
d="M425 -8q-14 0 -31 73q-29 128 -86 232q-21 -51 -35.5 -90.5t-22.5 -67.5l-12 -42.5t-18 -60.5q-15 -44 -38 -44t-61 61q-50 79 -74.5 168.5t-24.5 186.5q0 32 11 43q10 12 42 12q34 0 42 -59q5 -35 8.5 -73.5t8.5 -74.5q13 -59 65 -129q16 17 37.5 74.5t48.5 150.5
q-38 79 -38 94q0 17 44 17q41 0 69 -40q14 -20 30.5 -58.5t33.5 -90.5q50 -150 52 -155q5 -11 10 -11q23 0 40 59q13 45 13 81q0 37 -4.5 70.5t-13.5 57.5q-27 72 -27 73q0 14 47 14q51 0 69 -33q12 -23 12 -77v-29q0 -93 -56 -198q-71 -134 -141 -134z" />
    <glyph glyph-name="cyYAT" unicode="&#x462;" horiz-adv-x="704" 
d="M693 89q0 -89 -85 -89h-306q-28 0 -28 24v523q0 32 -27 32q-110 0 -137 -62l-27 -74q-21 -57 -37 -57q-25 0 -25 82q0 118 18 133q12 9 34 9h201v104q0 18 48 18q51 0 51 -19v-103h224q55 0 55 -96q0 -111 -25 -111q-20 0 -46 55l-32 75q-26 46 -136 46q-40 0 -40 -32
v-122l65 -43.5l64 -44.5q86 -59 131 -112q60 -71 60 -136zM579 116q0 78 -72 152q-5 6 -38.5 34l-95.5 79v-290q0 -54 67 -54h18h18q103 0 103 79z" />
    <glyph glyph-name="CYyat" unicode="&#x463;" horiz-adv-x="530" 
d="M515 83q0 -47 -24 -66q-23 -17 -70 -17h-190q-22 0 -22 18v406h-48q-38 0 -57 -43l-24 -79q-13 -43 -36 -43q-22 0 -22 115q0 80 42 80h145v94q0 17 42 17q39 0 39 -17v-95h160q28 0 37 -21q6 -14 6 -46q0 -110 -28 -110q-11 0 -28 41l-21 53q-27 54 -126 54v-136
q70 -20 141 -77q84 -66 84 -128zM424 88q0 52 -43 104q-42 53 -91 69v-196q0 -33 61 -33q39 0 53 8q20 12 20 48z" />
    <glyph glyph-name="NULL" 
 />
    <glyph glyph-name="NULL" 
 />
    <glyph glyph-name="cyIOTE" unicode="&#x464;" horiz-adv-x="661" 
d="M167 369v-358q0 -21 -51 -21q-49 0 -49 21v652q0 26 50 26t50 -24v-271h129q17 83 67 152q25 37 55 65.5t65 50.5q39 24 66 24q26 0 59 -58q30 -54 30 -84q0 -27 -18 -45q-9 -11 -41 -29l-25 1q0 21 -5 41.5t-14 40.5q-23 51 -58 51q-29 0 -60 -45q-41 -58 -41 -146
q0 -29 1.5 -53.5t5.5 -45.5q178 94 205 94q26 0 43 -32q15 -27 15 -56q0 -26 -29 -43q-24 -15 -52 -15q-7 0 -33 41q-25 41 -33 41q-16 0 -62 -25q-49 -25 -49 -37q0 -46 37 -113q41 -73 82 -73q39 0 105 61q8 0 15 -7q-3 -23 -78 -91q-75 -67 -97 -67q-68 0 -119 141
q-42 117 -42 217q0 5 0.5 10t0.5 9h-125z" />
    <glyph glyph-name="CYiote" unicode="&#x465;" horiz-adv-x="517" 
d="M141 244v-227q0 -18 -37 -18q-53 0 -53 18v424q0 16 25 16q65 0 65 -16v-168h99q11 58 68 122q62 70 114 70q19 0 45 -33q25 -32 25 -53q0 -23 -18 -45q-18 -23 -40 -23q-51 77 -73 77q-19 0 -30 -35q-9 -29 -9 -52q0 -75 19 -75q18 0 66 24q51 23 72 23q7 0 22 -21
t15 -29q0 -17 -18 -33q-20 -15 -35 -15q-4 0 -27 23q-23 24 -30 24q-17 0 -37 -14q-22 -15 -22 -32q0 -27 19 -63q22 -39 48 -39q34 0 73 30l10 -13q-20 -36 -55 -65q-40 -34 -75 -34q-47 0 -91 104q-39 90 -39 148h-96z" />
    <glyph glyph-name="cyYUS" unicode="&#x466;" horiz-adv-x="740" 
d="M332 619q0 23 -42 49q12 19 63 19h17q87 -4 321 -545q23 -54 34.5 -88.5t11.5 -41.5q0 -22 -61 -22q-50 0 -65 36l-73 193q-9 23 -72 23q-46 0 -46 -23v-208q0 -21 -54 -21q-47 0 -47 21v197q0 35 -69 35q-52 0 -61 -26l-60 -197q-9 -30 -48 -30q-57 0 -57 27
q0 23 20 80.5t61 142.5q73 154 113 213l63 87q51 72 51 79zM514 285q-92 221 -156 287q-34 -26 -89 -137q-56 -112 -56 -152q0 -14 92 -14h50q158 0 159 16z" />
    <glyph glyph-name="CYyus" unicode="&#x467;" horiz-adv-x="546" 
d="M238 361q-9 19 -14 30.5t-5 16.5q0 22 22 39q20 16 43 16q30 0 139 -202q54 -100 81 -166.5t27 -89.5q0 -15 -52 -15q-39 0 -52 22l-34 89q-23 47 -61 47q-32 0 -32 -23l1 -118q0 -17 -53 -17q-31 0 -31 17v120q0 21 -34 21q-41 0 -56 -38q-4 -18 -8.5 -41t-9.5 -40
q-14 -39 -53 -39q-20 0 -25 5q-8 5 -8 26q0 13 15.5 50t47.5 89q59 95 86 125l27.5 31zM348 183q0 17 -38 87q-38 69 -50 69q-19 0 -57 -67q-37 -64 -37 -87q0 -12 22 -12h142q18 0 18 10z" />
    <glyph glyph-name="cyIOTYUS" unicode="&#x468;" horiz-adv-x="961" 
d="M961 12q0 -22 -57 -22q-49 0 -62 36l-70 193q-8 23 -68 23q-43 0 -43 -23v-208q0 -21 -51 -21q-46 0 -46 21v197q0 35 -65 35q-49 0 -57 -26l-57 -197q-11 -30 -46 -30q-55 0 -55 27t46 138.5t139 297.5h-310v-442q0 -21 -49 -21q-47 0 -47 21v650q0 26 48 26
q47 0 47 -24l1 -185h325q94 133 94 141q0 23 -41 49q10 19 60 19h17q83 -5 304 -545q22 -53 32.5 -87.5t10.5 -42.5zM750 285l-43 103l-21 48q-22 46 -43 79.5t-41 56.5q-33 -25 -85 -136q-26 -57 -39.5 -94.5t-13.5 -58.5q0 -14 87 -14h36q162 0 163 16z" />
    <glyph glyph-name="CYiotyus" unicode="&#x469;" horiz-adv-x="750" 
d="M726 2q0 -12 -50 -12q-39 0 -52 22l-34 79q-11 23 -26.5 40t-34.5 17q-31 0 -31 -23v-118q0 -17 -52 -17q-32 0 -32 17v120q0 21 -34 21q-39 0 -54 -38q-5 -18 -10 -41t-10 -40q-17 -39 -53 -39q-37 0 -37 28q0 11 14.5 46.5t44.5 84.5l42.5 69.5t36.5 53.5h-210v-265
q0 -17 -58 -17q-31 0 -31 17v431q0 19 43 19q46 0 46 -17v-141h233l25.5 26t32.5 36l-19 47q0 23 22 39q20 16 43 16q33 0 140 -203q53 -100 79 -166.5t26 -91.5zM545 183q0 17 -38 87q-38 69 -50 69q-19 0 -57 -67q-37 -64 -37 -87q0 -12 22 -12h142q18 0 18 10z" />
    <glyph glyph-name="cyBYUS" unicode="&#x46a;" horiz-adv-x="713" 
d="M705 57q0 -26 -34 -50q-31 -22 -59 -22q-17 0 -24 24q-5 17 -10 38t-10 47l-15 86q-5 26 -17 57t-30 59q-9 14 -27 37l-44 56q-16 -22 -16 -72q0 -21 1 -57.5t4 -79.5l3.5 -73.5t1.5 -52.5q0 -60 -55 -60q-22 0 -38.5 14t-16.5 36v-5q7 43 10.5 79t3.5 65v208h-13
q-55 -54 -94 -133t-62 -176l-13 -55q-12 -40 -29 -40q-28 0 -60 25q-37 27 -37 51q0 19 56 104q53 81 98.5 143.5t85.5 97.5q57 49 57 58q0 17 -24 32l-211 131q-20 12 -20 24q0 26 37 26h538q30 0 30 -20q0 -21 -59 -57l-80 -44q-29 -16 -52.5 -32.5t-40.5 -33.5
q-15 -15 -15 -20q0 -14 50 -57l32 -27.5l32 -27.5q37 -34 99 -140q34 -57 50.5 -100t16.5 -63zM547 640l-334 1q-29 0 -29 -13q0 -21 84 -70q82 -48 107 -48q31 0 172 117v13z" />
    <glyph glyph-name="CYbyus" unicode="&#x46b;" horiz-adv-x="642" 
d="M624 55q0 -28 -29 -48q-28 -17 -57 -17q-14 0 -25 29l-13 53t-20 71q-15 37 -49 79q-41 48 -73 50v-268q0 -14 -45 -14q-44 0 -44 17v266q-34 0 -74 -55q-30 -44 -44 -88q-2 -5 -5 -25.5t-8 -46.5q-12 -68 -42 -68q-23 0 -49 26q-25 26 -25 51q0 15 14.5 47.5t43.5 71.5
q36 47 83 80q55 39 106 39v12q-63 40 -102 53l-52.5 18t-19.5 7q-47 21 -47 45q0 17 31 17h473q22 0 22 -15q0 -18 -60 -45l-40 -15.5l-40 -15.5q-38 -17 -76 -45v-14q74 0 169 -83q49 -43 73 -87.5t24 -81.5zM445 417q0 8 -12 8h-272q-11 0 -11 -9q0 -5 53 -27
q83 -37 108 -37q16 0 74 26q60 27 60 39z" />
    <glyph glyph-name="cyIOTBYUS" unicode="&#x46c;" horiz-adv-x="930" 
d="M162 369v-358q0 -21 -51 -21q-49 0 -49 21v642q0 26 50 26t50 -24v-261h303q71 61 71 72q0 18 -23 32l-182 112q-49 30 -49 43q0 26 36 26h539q29 0 29 -20q0 -22 -59 -57q-3 -2 -23 -13l-57 -31q-59 -32 -93 -66q-15 -15 -15 -20q0 -13 50 -57l64 -55q18 -17 43 -57
l57 -94q66 -113 66 -152q0 -28 -34 -50q-29 -22 -59 -22q-18 0 -24 25l-35 170q-8 35 -37 90t-80 119q-9 -63 -9 -153v-40.5t1 -55.5t1 -50.5v-35.5q0 -60 -55 -60q-20 0 -32.5 15t-12.5 35q0 6 1 95t3 252h-12q-52 -51 -91 -130t-65 -179q-26 -95 -43 -95q-26 0 -60 25
q-37 27 -37 51q0 16 21.5 58t64.5 102q71 99 115 146h-278zM761 640l-334 1q-29 0 -29 -13q0 -21 84 -70q82 -48 107 -48q29 0 172 117v13z" />
    <glyph glyph-name="CYiotbyus" unicode="&#x46d;" horiz-adv-x="844" 
d="M142 231v-224q0 -17 -28 -17q-61 0 -61 15v436q0 16 48 16q41 0 41 -15v-182h217q60 44 115 45v12l-49 29l-99 37q-73 27 -73 57q0 17 31 17h473q22 0 22 -15q0 -18 -61 -45l-79 -31q-38 -17 -76 -45v-14q74 0 169 -83q49 -43 73 -87.5t24 -81.5q0 -29 -30 -48
q-26 -17 -56 -17q-16 0 -25 29l-13 53t-20 71q-15 38 -49 79q-41 48 -73 50v-268q0 -14 -45 -14q-44 0 -44 17v266q-34 0 -74 -55q-31 -45 -44 -88l-15 -79l-1 -3q-10 -46 -24 -55q-6 -3 -15 -3q-23 0 -49 26q-25 26 -25 51q0 14 9 39.5t28 52.5q30 43 60 72h-182zM635 417
q0 8 -12 8h-272q-11 0 -11 -9q0 -5 53 -27q83 -37 108 -37q16 0 74 26q60 27 60 39z" />
    <glyph glyph-name="cyKSI" unicode="&#x46e;" horiz-adv-x="525" 
d="M242 620q0 13 -44 70t-44 65q0 15 18 15h48l73 -147l46 97q23 50 70 50q41 0 41 -30q0 -44 -35 -44q-5 0 -18.5 1t-19.5 1q-5 0 -12 -8t-13 -19t-10 -22.5t-4 -18.5q0 -15 34 -30q49 -23 63 -33q17 -13 25.5 -35.5t8.5 -42.5q0 -23 -6 -45t-18.5 -39.5t-32 -30
t-46.5 -16.5q144 -68 144 -177q0 -14 -3 -34.5t-9 -42t-15.5 -41t-21.5 -29.5q-23 -20 -49 -25.5t-54 -5.5q-10 0 -29.5 1t-41 2.5t-41 2.5t-29.5 1q-18 0 -31.5 -6.5t-22.5 -16.5t-13.5 -22t-4.5 -22q0 -31 10.5 -41.5t36.5 -10.5q37 0 109 26q71 25 110 25q102 0 102 -95
q0 -27 -107 -27q-7 0 -11 7t-20 21q-32 27 -41 27q-12 0 -36.5 -4.5t-47.5 -15.5q-48 -20 -71 -20q-72 0 -107 36.5t-35 96.5q0 18 9 35t23.5 29.5t33 20t38.5 7.5q12 0 35.5 -2.5t49.5 -5t49.5 -5t35.5 -2.5q20 0 35.5 14t25.5 36.5t15 50t5 54.5t-8.5 51.5t-23.5 42.5
t-35 29t-43 11q-24 0 -38.5 -5.5t-29.5 -22.5q-30 -32 -30 -80q0 -40 -17 -40h-76q-16 0 -16 35t21 62t52 45t67 27.5t67 9.5q20 0 35 9.5t25 26t15 38t5 44.5q0 45 -21.5 74.5t-63.5 29.5q-22 0 -42.5 -9.5t-36 -25.5t-25 -37t-9.5 -43v-20h-81v31q0 25 12.5 48.5
t32.5 41.5t45 29t51 11q18 0 18 7z" />
    <glyph glyph-name="CYksi" unicode="&#x46f;" horiz-adv-x="432" 
d="M192 473q0 6 -30 51l-38 56q0 15 21 15h4h-2l1 -1h22l67 -120l25 54.5t11 22.5q28 43 67 43q38 0 38 -28q0 -30 -39 -30h-7q-24 0 -34 -10q-1 -1 -5 -8l-8.5 -15.5t-8 -16.5t-3.5 -11q0 -18 29 -29q49 -20 52 -23q29 -17 29 -53q0 -28 -18 -57t-54 -50l-1 2
q46 -26 75 -65t29 -81q0 -55 -32.5 -91t-86.5 -36q-8 0 -24.5 1.5t-34.5 4t-34.5 4t-24.5 1.5q-61 0 -61 -40q0 -48 52 -48q12 0 35.5 4t49 9.5t49 9.5t35.5 4q79 0 79 -38q0 -33 -14 -47t-52 -14q-20 0 -54 24q-35 24 -38 24q-8 0 -24 -4l-33.5 -8.5t-33.5 -8t-24 -3.5
q-52 0 -83.5 28.5t-31.5 76.5q0 15 7 28.5t18.5 23.5t26 15.5t29.5 5.5q10 0 29.5 -2t41.5 -4.5t41.5 -4.5t29.5 -2q33 0 49.5 28t16.5 75q0 22 -6.5 42t-18.5 35.5t-28.5 24.5t-35.5 9q-44 0 -65 -33q-5 -6 -6.5 -16t-10.5 -35q-11 -33 -29 -33h-50q-19 0 -19 29
q0 30 12 48.5t47 37.5q55 28 121 28q13 0 25 8.5t21 22t14 30t5 32.5q0 74 -70 74q-17 0 -30 -4t-23 -14t-18.5 -27t-15.5 -43q-9 -31 -19 -31h-41q-19 0 -19 22q0 83 99 115q36 10 36 16z" />
    <glyph glyph-name="cyPSI" unicode="&#x470;" horiz-adv-x="679" 
d="M685 615q0 -12 -2.5 -27t-8.5 -33q-14 -45 -31 -45q-9 0 -35 38q-27 38 -37 38t-29 -60q-72 -224 -153 -274v-241q0 -21 -52 -21q-48 0 -48 21l1 230q-106 68 -196 228q-29 51 -43 92t-14 69q0 21 19 37q20 17 40 17q16 0 30 -32q32 -71 49.5 -113t22.5 -51
q60 -119 92 -127v301q0 22 49 22q50 0 50 -19v-363q37 1 91 145l69 182q22 57 61 57q75 0 75 -71z" />
    <glyph glyph-name="CYpsi" unicode="&#x471;" horiz-adv-x="667" 
d="M675 356q0 -24 -10.5 -46t-26.5 -22q-7 0 -65 75q-19 0 -31 -40l-13 -56q-30 -123 -131 -258v-19t0.5 -28t0.5 -29v-20q0 -73 -12 -129t-34 -94t-51.5 -57.5t-64.5 -19.5q-22 0 -22 25q0 5 19 15l25 12q44 26 44 187q0 7 -0.5 42.5t-1.5 100.5q-69 46 -125.5 119
t-104.5 165q-41 78 -41 122q0 10 6 20t15.5 18.5t21.5 13.5t23 5q17 0 24.5 -24.5l16.5 -55.5q15 -60 52 -125.5t96 -129.5q15 1 15 36l-17 436q0 18 8.5 35t23 30.5t32.5 22t38 8.5q6 0 6 -26q0 -10 -0.5 -29.5l-1 -40.5t-1 -39.5t-0.5 -26.5l-1 -442q4 -5 9 -5
q13 0 28.5 17t30.5 45.5t29 65.5t24 77q11 48 18.5 75t9.5 33q26 71 69 71q15 0 28 -9t22.5 -24t14.5 -35t5 -42z" />
    <glyph glyph-name="vyFITA" unicode="&#x472;" horiz-adv-x="694" 
d="M469 75q-74 -87 -114 -87q-41 0 -107 87h-106v-87q0 -72 -44 -72q-36 0 -56 53q-6 19 -9.5 40t-3.5 44q0 58 26 58h168q-72 114 -72 231q0 118 102 246q78 94 126 94q21 0 62 -38q137 -123 137 -285q0 -133 -82 -248h169q26 0 26 -57q0 -48 -12 -85q-18 -53 -55 -53
q-44 0 -44 72v87h-111zM502 265q0 187 -114 286q-36 30 -57 30q-44 0 -77 -60q-28 -50 -28 -99q0 -185 127 -296q37 -34 61 -34q47 0 71 67q9 24 13 50.5t4 55.5z" />
    <glyph glyph-name="CYfita" unicode="&#x473;" horiz-adv-x="514" 
d="M363 39q1 0 1.5 -0.5t2.5 -0.5q6 0 15 3t12 3q5 0 14.5 1.5t19.5 4t19 4t14 1.5q24 0 29.5 -11.5t5.5 -43.5q0 -40 -20 -88q-12 -29 -19.5 -43.5t-25.5 -14.5q-14 0 -25.5 11t-11.5 25q0 6 2 19t4 27.5t4 27.5t2 19q0 25 -36 25q-14 0 -24.5 -1t-19.5 -2.5l-18.5 -3
t-22.5 -1.5q-14 -6 -27 -6q-10 0 -26 8q-45 3 -71 3q-13 0 -25.5 -10.5t-20.5 -30.5l-11 -74q-8 -20 -15.5 -28t-21.5 -8q-19 0 -28 26t-9 84q0 54 13 76t39 22q14 0 41 -13q13 -6 26 -5t42 -4q-33 38 -50 81.5t-17 97.5q0 46 47 143q52 103 93 103q23 0 64 -40
q80 -80 80 -182q0 -19 -6 -45.5t-16.5 -55.5t-26 -57.5t-34.5 -50.5l18.5 2t19.5 3zM336 171q0 102 -45 159q-34 43 -67 43t-33 -111q0 -98 62 -151q24 -21 37 -21q46 0 46 81z" />
    <glyph glyph-name="cyIZHITSA" unicode="&#x474;" horiz-adv-x="509" 
d="M507 540q0 -12 -3.5 -28t-9.5 -35q-15 -47 -34 -47q-8 0 -35 55q-26 55 -31 55q-22 0 -46 -108q-46 -209 -66 -370q-8 -63 -19 -63h-26h-27q-47 0 -54 37l-123 603q0 2 -0.5 5t-0.5 6q0 34 56 34q25 0 33 -4q14 -8 17 -28l110 -554q43 267 90 459q33 136 97 136
q30 0 52 -64q20 -54 20 -89z" />
    <glyph glyph-name="CYizhitsa" unicode="&#x475;" horiz-adv-x="438" 
d="M437 364q0 -19 -12 -44q-14 -30 -29 -30q-8 0 -30 36q-22 37 -28 37q-18 0 -57 -142q-17 -63 -27 -107.5t-14 -72.5q0 -5 -1 -12.5t-3 -17.5q-3 -12 -13 -12l-66 1q-17 0 -27 24q-14 30 -58 205q-21 88 -32.5 142.5t-11.5 69.5q0 23 57 23q32 0 36 -22l89 -376
q33 166 51 229q49 171 112 171q24 0 45 -40q19 -34 19 -62z" />
    <glyph glyph-name="cyIZHITSADBLGRAVE" unicode="&#x476;" horiz-adv-x="509" 
d="M507 525q0 -12 -3.5 -27.5t-9.5 -35.5q-15 -46 -34 -46q-8 0 -35 54q-25 55 -31 55q-22 0 -46 -108q-23 -105 -39.5 -190.5t-26.5 -164.5q-8 -63 -19 -63h-26h-27q-47 0 -54 37l-113 603q-1 3 -1 11q0 34 56 34q25 0 33 -4q14 -8 17 -28l100 -554q22 134 44.5 241
t45.5 203q33 136 97 136q29 0 52 -63q20 -54 20 -90zM165 732l-96 159h103l28 -160zM337 732l-96 159h103l29 -160z" />
    <glyph glyph-name="CYizhitsadblgrave" unicode="&#x477;" horiz-adv-x="438" 
d="M437 364q0 -19 -12 -44q-14 -30 -29 -30q-8 0 -30 36q-22 37 -28 37q-18 0 -57 -142q-17 -63 -27 -107.5t-14 -72.5q0 -5 -1 -12.5t-3 -17.5q-3 -12 -13 -12l-66 1q-17 0 -27 24q-14 30 -58 205q-21 88 -32 142t-11 69q0 23 57 23q32 0 36 -22l88 -375q33 166 51 229
q49 171 112 171q24 0 45 -40q19 -34 19 -62zM223 679h93l30 -168l-26 1zM57 679h93l30 -168l-26 1z" />
    <glyph glyph-name="cyUK" unicode="&#x478;" horiz-adv-x="925" 
d="M235 -7q-24 0 -65 41q-134 136 -134 311q0 120 101 245q76 94 122 94q19 0 60 -38q134 -123 134 -284q0 -193 -157 -335q-37 -34 -61 -34zM211 590q-46 0 -79 -61q-29 -52 -29 -103q0 -184 127 -301q40 -36 63 -36q50 0 74 69q19 52 19 110q0 188 -115 291q-35 31 -60 31
zM920 423q-3 -54 -7.5 -84.5t-10 -43t-12.5 -10.5t-14.5 12.5t-16.5 26.5t-19 30.5t-21 24.5t-23 10q-7 0 -18 -19t-21.5 -60t-19 -107t-10.5 -159q-4 -70 -5 -114.5t-2 -73t-2.5 -46t-5.5 -35t-12.5 -40l-22.5 -60.5q-5 -13 -14 -23t-18.5 -16t-19.5 -8.5t-16 -0.5
q-14 5 -19 11.5t-6 13.5t0.5 13t1.5 9q31 49 50 83t29 66t13 67.5t4 88.5q0 5 -0.5 15t-1.5 15q-6 1 -12.5 2.5t-15.5 7.5t-20.5 17.5t-25.5 32.5q-35 51 -57.5 101.5t-35.5 96t-18 83.5t-5 64q0 20 24 41q12 10 16.5 12.5t15.5 2.5q8 0 22 -41q9 -28 16 -60.5t12.5 -63
t10.5 -55.5t11 -37q30 -61 71 -104v40q0 20 3 46t8.5 54t14 56t19.5 51q55 109 124 109q27 0 62 -42z" />
    <glyph glyph-name="CYuk" unicode="&#x479;" horiz-adv-x="774" 
d="M754 423q-3 -54 -7.5 -84.5t-10 -43t-12.5 -10.5t-14.5 12.5t-16.5 26.5t-19 30.5t-21 24.5t-23 10q-8 0 -19 -19t-21.5 -60t-19 -107t-10.5 -159q-4 -70 -5 -114.5t-2 -73t-2 -46t-5 -35t-12.5 -40l-22.5 -60.5q-5 -13 -14 -23t-19 -16t-19.5 -8.5t-15.5 -0.5
q-14 5 -19.5 11.5t-6 13.5t1 13t1.5 9q31 49 49.5 83t28.5 66t13.5 67.5t3.5 88.5q0 5 -0.5 15t-0.5 15q-6 1 -13 2.5t-16 7.5t-20 17.5t-25 32.5q-35 51 -57.5 101.5t-35.5 96t-18 83.5t-5 64q0 20 24 41q12 10 16 12.5t15 2.5q10 0 22 -41q9 -28 16 -60.5t12.5 -63
t11 -55.5t11.5 -37q30 -61 71 -104q-1 11 -1 20.5v19.5q0 20 3 46t8.5 54t14 56t20.5 51q54 109 124 109q27 0 62 -42zM315 243q0 -62 -44 -150q-51 -99 -106 -99q-28 0 -76 57q-58 70 -58 168q0 47 48 143q51 103 92 103q24 0 64 -40q80 -78 80 -182zM243 171
q0 102 -45 159q-34 43 -67 43t-33 -111q0 -97 62 -151q24 -21 37 -21q46 0 46 81z" />
    <glyph glyph-name="cyRNDOMEGA" unicode="&#x47a;" horiz-adv-x="742" 
d="M385 -19q-25 0 -60 13l-29 10.5l-29 10.5q-237 70 -237 341q0 118 68 197q29 33 73 62t104 54q80 34 110 34q18 0 54 -13q78 -28 118 -48q182 -95 182 -286q0 -203 -132 -294q-17 -12 -53.5 -27t-93.5 -33q-65 -21 -75 -21zM385 82q20 0 53 -16q34 -15 54 -15q35 0 71 54
q66 99 66 249q0 85 -29 167q-41 106 -109 106q-20 0 -54 -21q-37 -20 -52 -20q-17 0 -52 20q-36 21 -55 21q-69 0 -108 -107q-15 -41 -22 -82t-7 -84q0 -175 76 -264q33 -39 60 -39q19 0 54 15q33 16 54 16z" />
    <glyph glyph-name="CYrndomega" unicode="&#x47b;" horiz-adv-x="672" 
d="M350 -9q-56 0 -112.5 15t-102.5 45t-75 74t-29 103q0 113 107 180q95 58 212 58q151 0 241 -81q78 -71 78 -157q0 -58 -29 -102.5t-75 -74.5t-103 -45t-112 -15zM350 427q-42 0 -78.5 -15t-63.5 -42t-42.5 -63.5t-15.5 -78.5q0 -39 16.5 -75.5t44 -64t63.5 -44.5t76 -17
t76.5 16.5t64 44t43.5 64t16 76.5q0 42 -16 78.5t-43 63.5t-63.5 42t-77.5 15z" />
    <glyph glyph-name="cyOMEGATITLO" unicode="&#x47c;" horiz-adv-x="951" 
d="M928 324q0 -125 -59 -220q-69 -112 -187 -112q-60 0 -110 33.5t-89 91.5q-45 -58 -90.5 -91.5t-93.5 -33.5q-122 0 -192 127q-58 104 -58 238q0 39 11.5 93t35.5 109q55 126 122 126q78 0 78 -52q0 -36 -15.5 -56t-45.5 -20q-33 0 -55 -25t-35 -58.5t-18 -68.5t-5 -56
q0 -18 5.5 -47t15.5 -62t25 -66.5t34 -60t41.5 -43.5t49.5 -17q15 0 34 9.5t38.5 27.5t39 42.5t34.5 54.5l7 14t6.5 10.5t10.5 6.5t19 2q21 0 29 -9t16 -26q12 -24 28 -47.5t34.5 -42t40 -30.5t45.5 -12q80 0 118.5 71.5t38.5 201.5q0 72 -28 161t-71 184q2 8 2.5 12t16.5 4
q43 0 109 -122q33 -63 50 -126.5t17 -114.5zM799 804q1 -2 -2 -4.5t-7 -5.5t-7 -5l-3 -2q-11 1 -25.5 7t-30.5 15l-31.5 18.5t-27.5 18.5q-95 71 -199 71q-21 1 -44 -4t-49 -17q-59 -23 -60 -53q0 -5 -5.5 -14.5t-5.5 -14.5v-5.5t2 -7.5q-8 -6 -53 -4q-20 0 -20 20
q2 23 35 61q86 97 201 94q32 -1 61.5 -11.5t57.5 -26.5t54.5 -36l52.5 -39q18 -13 35 -21t31 -14t24.5 -10t15.5 -10zM457 704q-8 4 2 12.5t25 18.5t28.5 20.5t13.5 19.5q-1 16 -10 24t-22.5 10.5t-31 -0.5t-35.5 -9q-10 -3 -16 -7l-12 33q29 18 58 28q79 29 98 -25
q14 -42 -1 -79q-2 -5 -13.5 -15t-26.5 -19t-30.5 -13.5t-26.5 1.5z" />
    <glyph glyph-name="CYomegatitlo" unicode="&#x47d;" horiz-adv-x="708" 
d="M684 212q0 -45 -13 -85t-37 -70t-56.5 -47t-71.5 -17q-45 0 -80.5 24t-64.5 62q-32 -38 -65 -62t-67 -24q-40 0 -73.5 19.5t-57.5 52.5t-37.5 76.5t-13.5 91.5q0 15 4 37.5t11 48.5t18 51.5t24.5 46.5t30 34t35.5 13q56 0 56 -34q0 -28 -12 -37q-3 -3 -11 -4.5t-17 -3.5
t-17.5 -5t-12.5 -8q-14 -17 -24 -59t-10 -89q0 -21 6.5 -53t19.5 -62.5t32.5 -52.5t44.5 -22q10 0 23.5 8t27 21t27 30.5t24.5 37.5q6 11 11 16.5t23 5.5t23.5 -6t12.5 -17q9 -16 20 -33t24.5 -31t28.5 -23t30 -9q47 0 75 47t28 132q0 47 -17.5 113t-48.5 129q2 5 5.5 8
t14.5 3q18 0 34 -15.5t30.5 -39.5t26 -54t19.5 -58t12.5 -51.5t4.5 -35.5zM663 596q0 -2 -3 -4.5t-6.5 -5t-6.5 -4l-3 -1.5q-11 1 -25.5 7t-30.5 14.5t-31.5 18t-27.5 18.5q-49 35 -98.5 53.5t-100.5 18.5q-22 0 -46 -7t-45.5 -18t-38 -24.5t-23.5 -25.5q-7 -11 -5.5 -20.5
t-3.5 -21.5q-2 -4 -13 -4h-27q-17 0 -25 3t-8 16q0 24 35 62q82 94 194 94q33 0 64 -10t59.5 -26.5t55.5 -36.5l54 -39q18 -14 34.5 -22t31 -14l25 -10t15.5 -10v-1zM320 498q-3 1 -3 3q0 6 11.5 14l25 17t25 18.5t11.5 17.5q0 20 -13.5 28t-32.5 8q-14 0 -33.5 -4.5
t-35.5 -12.5l-12 32q25 17 54.5 27.5t50.5 10.5q29 0 43.5 -21.5t14.5 -52.5q0 -21 -9 -40q-2 -4 -10.5 -12t-20.5 -16t-26 -14t-26 -6q-8 0 -14 3z" />
    <glyph glyph-name="cyOT" unicode="&#x47e;" horiz-adv-x="818" 
d="M379 732q-14 0 -16 35q1 -22 1.5 -11t0.5 56q0 21 -12 21q-38 0 -82 -14q-54 -17 -63 -45q-13 -34 -26 -34q-11 0 -18 15l-42 90q-2 23 13 23h560q15 0 13 -25q-7 -10 -17 -31.5l-25 -56.5q-8 -17 -18 -17t-25 34q-14 29 -63 45q-42 15 -81 15q-8 0 -11 -17
q-1 -5 -1 -13.5v-19.5q1 -14 1.5 -20t0.5 -4q0 -26 -16 -26h-74zM801 504q0 -54 -14.5 -114t-43.5 -126q-20 -43 -49 -97.5t-69 -120.5q-32 -53 -65 -53q-10 0 -18 14.5t-15 37t-13 50t-10.5 52.5t-8.5 45t-7 28q-9 25 -15 47l-10.5 40t-8.5 32t-11 24q-42 -39 -100 -160
l-66 -180q-17 -30 -33 -30q-19 0 -66 67q-130 185 -130 407q0 214 66 214t66 -28q0 -19 -9 -49q-7 -22 -10 -33.5t-4 -13.5q-6 -27 -6 -86q0 -77 13.5 -146.5t41.5 -129.5q33 -72 59 -72q3 0 7 9t11.5 27.5t20.5 46t33 64.5q83 151 83 181q0 17 -0.5 45t-20.5 69
q-41 85 -41 99q0 17 43 17q23 0 34.5 -5t22.5 -16q16 -16 28.5 -50t24.5 -85.5t24.5 -121l27.5 -156.5q4 -21 12.5 -37t18 -26.5t18.5 -16t14 -5.5q26 0 61 113q32 104 32 142q0 58 -18 123l-19.5 58l-18.5 58q0 2 -0.5 2.5t-0.5 2.5q0 20 44 20q40 0 61 -16q34 -28 34 -161
z" />
    <glyph glyph-name="CYot" unicode="&#x47f;" horiz-adv-x="645" 
d="M496 641q0 -26 -9 -54q-10 -37 -29 -37q-10 0 -21 26q-14 37 -21 49q-18 26 -45 26q-39 0 -39 -34v-91q0 -36 -40 -36q-35 0 -35 36v93q0 33 -34 33q-36 0 -55 -26q-3 -5 -8.5 -17.5t-13.5 -32.5q-11 -26 -25 -26t-21 33q-6 25 -6 45q0 26 5 35q7 15 42 15h322
q33 0 33 -37zM425 -8q-14 0 -31 73q-29 128 -86 232q-21 -51 -35.5 -90.5t-22.5 -67.5l-12 -42.5t-18 -60.5q-15 -44 -38 -44t-61 61q-50 79 -74.5 168.5t-24.5 186.5q0 32 11 43q10 12 42 12q34 0 42 -59q5 -35 8.5 -73.5t8.5 -74.5q13 -59 65 -129q16 17 37.5 74.5
t48.5 150.5q-38 79 -38 94q0 17 44 17q41 0 69 -40q14 -20 30.5 -58.5t33.5 -90.5q50 -150 52 -155q5 -11 10 -11q23 0 40 59q13 45 13 81q0 37 -4.5 70.5t-13.5 57.5q-27 72 -27 73q0 14 47 14q51 0 69 -33q12 -23 12 -77v-29q0 -93 -56 -198q-71 -134 -141 -134z" />
    <glyph glyph-name="cyKOPPA" unicode="&#x480;" horiz-adv-x="539" 
d="M481 432q-53 0 -68 25q-8 11 -11 59q-5 44 -25 67q-27 30 -62 30q-75 0 -108 -122q-22 -78 -22 -183q0 -42 7.5 -84t24.5 -84q42 -109 111 -109q41 0 58 36l20 68q12 36 39 36q42 0 53 -17q10 -13 10 -52q0 -58 -77 -103q-2 -50 -7 -94t-12 -82q-24 -135 -68 -135
q-45 0 -58 9q-18 13 -18 54v4q2 4 15.5 24l39.5 57q43 60 66 160q-324 6 -324 327q0 121 61 215q69 108 184 108q218 0 218 -159q0 -55 -47 -55z" />
    <glyph glyph-name="CYkoppa" unicode="&#x481;" horiz-adv-x="400" 
d="M345 283q-46 0 -60 20q-7 11 -10 45q-1 33 -14 47q-16 16 -32 16q-44 0 -63 -82q-8 -28 -11 -52t-3 -56q0 -48 20 -108q25 -73 66 -73q24 0 31 25l11 48q11 26 40 26q35 0 47 -14.5t12 -49.5q0 -48 -54 -81q-2 -37 -6.5 -69.5t-10.5 -61.5q-21 -95 -59 -95q-40 0 -52 11
q-17 14 -17 52q0 7 42 66q27 37 39 89q-223 4 -223 246q0 46 12 81.5t35 70.5q54 81 140 81q168 0 168 -127q0 -55 -48 -55z" />
    <glyph glyph-name="xThousand" unicode="&#x482;" horiz-adv-x="319" 
d="M135 100q49 -34 49 -58q0 -14 -8 -25.5t-22 -11.5q-20 0 -49 26q-15 -14 -15 -52q0 -28 25 -75t25 -51q0 -40 -51 -40q-60 0 -60 116q0 28 11 66q11 40 31 58q-47 24 -47 54q0 34 28 34q25 0 51 -21l25 36q-48 30 -48 52q0 14 11.5 23.5t25.5 9.5q16 0 52 -27
q79 71 116 71q17 0 17 -18q0 -10 -99 -79q38 -26 38 -49q0 -35 -29 -35q-14 0 -51 31z" />
    <glyph glyph-name="Titlocomb" unicode="&#x483;" 
d="M-343 542h-56v74q0 29 12.5 45.5t32.5 17.5h220q47 0 55 39q1 7 0 57h56v-85q0 -49 -38 -52h-232q-28 -1 -39 -14t-11 -37v-45z" />
    <glyph glyph-name="Palatalizationcomb" unicode="&#x484;" 
d="M82 506q-45 36 -89 36q-39 0 -64 -33q-2 -12 -3.5 -20t-1.5 -12l-2 -6q-8 -5 -31 -5q-18 0 -18 20q0 35 42 71q42 34 77 34q32 0 87 -38q56 -39 56 -71q0 -8 -9 -12z" />
    <glyph glyph-name="Dasiapneumacomb" unicode="&#x485;" 
d="M-159 516q-14 7 -31.5 18.5l-34.5 23.5l-31.5 23t-20.5 18q-28 30 -28 74q0 56 85 56q34 0 63 -7v-35q-5 1 -8.5 1h-8.5q-39 0 -55.5 -11t-16.5 -34q0 -29 20.5 -55t67.5 -51l-1 -21v0z" />
    <glyph glyph-name="Psilipneumacomb" unicode="&#x486;" 
d="M-241 542q47 26 68 52t21 54q0 23 -17 34.5t-56 11.5h-8t-9 -1v35q16 3 31.5 5t31.5 2q85 0 85 -56q0 -44 -28 -75q-7 -7 -22.5 -19l-33.5 -25t-35 -23.5t-27 -14.5z" />
    <glyph glyph-name="Pokrytie" unicode="&#x487;" 
d="M29 580q0 -2 -3 -5t-6.5 -5.5t-6.5 -4l-3 -1.5q-11 1 -25.5 7t-30.5 15l-31.5 18.5t-27.5 18.5q-98 72 -199 72q-22 0 -46 -7t-45.5 -18t-38 -24.5t-23.5 -25.5q-6 -11 -5 -20.5t-4 -21.5q-2 -5 -12.5 -4.5t-27.5 0.5t-25 2.5t-8 16.5q0 22 35 62q82 94 194 94
q33 0 64 -10t59.5 -26.5t56 -36.5l53.5 -40q18 -13 35 -21t31 -14t24.5 -10t15.5 -10v-1z" />
    <glyph glyph-name="xHundredthousand" unicode="&#x488;" horiz-adv-x="382" 
d="M266 428q-25 55 -98 55q-77 0 -96 -55h-23q17 113 119 113q95 0 122 -113h-24zM364 178q-24 55 -97 55q-75 0 -96 -55h-23q6 50 38 80q31 33 81 33q96 0 122 -113h-25zM-115 608q-24 56 -97 56q-75 0 -96 -56h-23q6 49 38 80q31 33 81 33q96 0 122 -113h-25zM266 -86
q-26 54 -98 54q-77 0 -96 -54h-23q16 111 119 111q95 0 122 -111h-24zM-500 428q-25 55 -98 55q-77 0 -96 -55h-23q17 113 119 113q95 0 122 -113h-24zM-110 -263q-25 55 -98 55q-77 0 -96 -55h-23q17 113 119 113q95 0 122 -113h-24zM-614 178q-24 55 -97 55q-75 0 -96 -55
h-23q6 50 38 80q31 33 81 33q96 0 122 -113h-25zM-500 -86q-26 54 -97 54q-77 0 -96 -54h-23q16 111 119 111q95 0 122 -111h-25z" />
    <glyph glyph-name="xMillion" unicode="&#x489;" horiz-adv-x="382" 
d="M105 515q0 -4 7 -7l5 2q58 -13 58 -44q0 -21 -13.5 -36t-34.5 -15q-27 0 -46 21q-19 20 -19 49q0 44 39 80q34 32 79 44l6 -22q-81 -36 -81 -72zM266 248q4 -23 4 -29q0 -45 -47 -45q-20 0 -33.5 15t-13.5 37q0 30 24 50q22 19 54 19q75 0 126 -72l-18 -15q-53 53 -87 53
q-14 0 -12 -10zM-216 594q-29 0 -48 22q-19 20 -19 52q0 82 94 127l9 -21q-65 -45 -65 -83q0 -7 7 -7l5 2q4 0 7 1h7q53 0 53 -43q0 -50 -50 -50zM201 -213q0 78 -31 101l-5 2l-5 -2q0 -2 -0.5 -3t0.5 -3l-22 -26q-15 -13 -29 -13q-18 0 -31 15q-14 14 -14 33q0 23 20 41
q19 16 44 16q45 0 74 -45q24 -39 24 -87q0 -8 -0.5 -16.5t-1.5 -16.5zM-530 411q-46 0 -74 46q-24 37 -24 87q0 16 3 33l22 -4q0 -31 7 -60q10 -43 29 -43l4 2l1 6q31 39 49 39q20 0 33 -16q14 -16 14 -33q0 -23 -20 -40q-22 -17 -44 -17zM-247 -316q66 45 66 83q0 7 -7 7
l-5 -2q-4 0 -7 -1h-7q-53 0 -53 44q0 49 50 49q29 0 49 -22q18 -21 18 -52q0 -81 -93 -127zM-718 154q-45 0 -89 25l12 20q41 -16 70 -16q39 0 39 16v1q0 1 -0.5 1t-0.5 2l-4 3q-22 31 -22 47q0 18 15 29.5t32 11.5q25 0 38 -19q14 -17 14 -40q0 -39 -34 -61
q-31 -20 -70 -20zM-654 -211l1 22q78 7 98 42v5l-3 4h-5q-8 5 -15 10l-14 10q-15 12 -15 32q0 18 15 32q13 13 32 13q25 0 43 -19q17 -18 17 -45q0 -50 -48 -81q-42 -26 -95 -26z" />
    <glyph glyph-name="cyGHEUPTURN" unicode="&#x490;" horiz-adv-x="456" 
d="M432 678q-27 -42 -120 -42h-15t-20 1q-11 0 -19 0.5t-12 0.5q-56 0 -75 -22q-13 -20 -13 -78q0 -42 0.5 -115t0.5 -158q1 -85 1 -148v-105q0 -12 -27 -12h-59q-10 4 -10 11l1 667l1 1l212 1q46 0 68 35q7 11 13.5 30.5t11.5 47.5q12 57 23 78q39 -42 39 -160
q0 -9 -0.5 -17t-0.5 -16z" />
    <glyph glyph-name="CYgheupturn" unicode="&#x491;" horiz-adv-x="419" 
d="M169 13q0 -13 -16 -13h-70q-6 0 -6 12v438q0 8 6 8h198q33 0 51 39q4 11 8 29t8 44q4 40 13 42q49 -120 49 -146q0 -4 -11 -21q-13 -7 -29.5 -12t-38.5 -7l-71 -7q-71 -12 -80 -23q-9 -10 -13 -83v-19v-62t1 -86q0 -45 0.5 -78t0.5 -55z" />
    <glyph glyph-name="cyENSFT" unicode="&#x4a4;" horiz-adv-x="669" 
d="M646 503q0 -13 -9.5 -24.5t-22.5 -11.5q-9 0 -21 12q-9 7 -11 18l-13 80q-4 17 -10.5 33t-17.5 22q-6 4 -20.5 5.5t-32 1.5t-36 -0.5t-33.5 -0.5v-602q0 -36 -19 -40q-4 -2 -10 -2h-14q-33 0 -38 11q-5 6 -5 31v142l-205 276l6 -418q0 -25 -8.5 -33.5t-33.5 -8.5
q-8 0 -14 0.5t-11 1.5q-20 6 -20 40v602q0 26 11 34q7 6 34 6t34 -7q8 -8 8 -33v-113l200 -274l-1 387q0 25 9 33q10 8 34 7h21.5h31t33 0.5t28.5 0.5h75q81 0 81 -59v-117z" />
    <glyph glyph-name="CYensft" unicode="&#x4a5;" horiz-adv-x="549" 
d="M474 458q57 0 57 -43v-67q0 -23 -16 -23q-13 0 -25 28q-17 41 -25 51q-20 27 -55 27h-53v-414q0 -21 -13 -25q-4 -2 -32 -2q-31 0 -31 27v118l-174 190v-308q0 -27 -37 -27q-21 0 -27 3q-11 6 -11 24v417q0 19 13 25q8 2 30 2q32 0 32 -27v-75l174 -189v261q0 27 36 27
h157z" />
    <glyph glyph-name="uni04D0" unicode="&#x4d0;" horiz-adv-x="566" 
d="M557 17q1 -1 1 -3q0 -14 -20 -14h-57q-28 0 -43 43l-91 247l-218 -182q-8 -37 -13.5 -59.5t-6.5 -24.5q-15 -32 -66 -32q-35 0 -35 27q0 12 18.5 63t52.5 135q15 36 40.5 91.5l62.5 136.5l21 46.5l28 64.5q5 17 5 30q0 37 -19 47l-42 9q-30 6 -30 23q0 18 88 18
q62 0 109 -75q35 -55 66 -158l42 -137zM335 321l-77 209q-26 -63 -55.5 -155.5t-63.5 -220.5zM152 801q0 70 57 70q17 0 17 -7q0 -6 -11 -23q-9 -15 -9 -23q0 -28 61 -28q25 0 55 10q36 12 51 25l25 27q19 17 28 17q11 0 11 -10q0 -11 -13 -28q-31 -41 -74 -66t-99 -25
q-50 0 -74.5 17.5t-24.5 43.5z" />
    <glyph glyph-name="uni04D1" unicode="&#x4d1;" horiz-adv-x="460" 
d="M455 10q0 -20 -47 -20q-37 0 -44 13l-71 105q-32 -42 -92 -79q-64 -37 -114 -37q-25 0 -41 25q-15 21 -15 47q0 54 51 138q44 76 92 118l-63.5 95.5t-24.5 41.5q0 10 54 10q49 0 55 -11l251 -415q9 -15 9 -31zM189 296q-13 -12 -25 -32t-24 -47q-24 -54 -24 -89
q0 -51 50 -51q71 0 116 56zM84 566q0 70 58 70q16 0 16 -7q0 -8 -10 -22q-10 -17 -10 -24q0 -27 61 -27q25 0 56 10q17 5 29.5 11.5t20.5 13.5l26 26q17 17 28 17t11 -9q0 -11 -14 -28q-31 -42 -73.5 -66.5t-98.5 -24.5q-50 0 -75 17.5t-25 42.5z" />
    <glyph glyph-name="Threedotright" unicode="&#x10fb;" horiz-adv-x="287" 
d="M54 337q0 47 42 47q20 0 37 -12q19 -13 19 -33q0 -23 -17 -40q-18 -16 -41 -16q-40 0 -40 54zM171 200q0 23 16 39q17 16 40 16q19 0 31 -19q12 -17 12 -36q0 -22 -16 -39q-13 -17 -35 -17t-35 17q-13 16 -13 39zM52 45q0 19 17 39q18 19 37 19q23 0 40 -15
q17 -14 17 -36q0 -21 -19 -37q-17 -17 -40 -17q-22 0 -37 12.5t-15 34.5z" />
    <glyph glyph-name="cmbdottedgrave" unicode="&#x1dc0;" 
d="M-67 700q0 -18 -13 -31t-31 -13t-31 13t-13 31t13 31t31 13t31 -13t13 -31zM-280 564q0 -17 -13 -30t-31 -13q-19 0 -32 13t-13 30q0 18 13 31t32 13q18 0 31 -13t13 -31zM-266 746l147 -207l-41 -24l-149 205z" />
    <glyph glyph-name="cmbdottedacute" unicode="&#x1dc1;" 
d="M-369 700q0 18 13 31t31 13t31 -13t13 -31t-13 -31t-31 -13t-31 13t-13 31zM-156 564q0 18 13 31t31 13q19 0 32 -13t13 -31q0 -17 -13 -30t-32 -13q-18 0 -31 13t-13 30zM-127 720l-149 -205l-41 24l147 207z" />
    <glyph glyph-name="cmbsnakebelow" unicode="&#x1dc2;" 
d="M-284 -98q11 13 24.5 20t26 10.5t23.5 4t17 0.5q29 0 45.5 -16.5t16.5 -33.5q0 -12 -11 -20.5t-23.5 -15.5l-23 -13t-9.5 -13v-2q0 -6 6 -12l13.5 -13.5t13.5 -15.5t6 -17q0 -11 -8.5 -20t-19 -16t-18.5 -13t-6 -11q5 -17 20.5 -23t44.5 -11l-2 -14q-53 2 -77 14.5
t-24 32.5q0 15 7 21t16 10.5t16 10t7 18.5q0 8 -6.5 14l-14 12.5t-13 15t-4.5 22.5q0 11 10 18t22 13t22 12.5t10 16.5t-8 14t-28 4q-10 0 -23.5 -5.5t-26.5 -17.5z" />
    <glyph glyph-name="cmbsuspensionmrk" unicode="&#x1dc3;" 
d="M-392 602q0 69 58 69q16 0 16 -6q0 -9 -10 -23q-10 -17 -10 -23q0 -28 61 -28q25 0 56 10q17 5 29.5 11.5t20.5 13.5l25 26q17 17 29 17q11 0 11 -9t-14 -28q-31 -41 -73.5 -66t-98.5 -25q-50 0 -75 17.5t-25 43.5z" />
    <glyph glyph-name="uni1DC4" unicode="&#x1dc4;" 
d="M-3 746l30 -50l-201 -120h-212v58h198z" />
    <glyph glyph-name="uni1DC5" unicode="&#x1dc5;" 
d="M-170 634h197v-58h-212l-201 120l31 50z" />
    <glyph glyph-name="uni1DC6" unicode="&#x1dc6;" 
d="M-188 688h-198v58h212l201 -121l-30 -49z" />
    <glyph glyph-name="uni1DC7" unicode="&#x1dc7;" 
d="M-355 576l-31 49l201 121h212v-58h-197z" />
    <glyph glyph-name="uni1DC8" unicode="&#x1dc8;" 
d="M-111 745l156 -125l-36 -39l-120 100l-151 -101l-144 130l40 33l104 -95z" />
    <glyph glyph-name="uni1DC9" unicode="&#x1dc9;" 
d="M-98 648l104 95l39 -33l-143 -130l-151 101l-121 -100l-36 39l156 125z" />
    <glyph glyph-name="Psilivariacomb" unicode="&#x1fcd;" 
d="M-341 514q23 12 40.5 22t29 19.5t17.5 20t6 24.5q0 45 -77 45h-17v34q29 7 63 7q85 0 85 -56q0 -44 -28 -74q-25 -27 -51.5 -44t-66.5 -19zM-118 687l72 -205h-25l-103 159q0 16 7 29q8 17 22 17h27z" />
    <glyph glyph-name="Psilioxiacomb" unicode="&#x1fce;" 
d="M-292 504q43 27 68.5 47.5t25.5 48.5q0 45 -77 45h-17v34q29 7 63 7q84 0 84 -56q0 -46 -27 -74q-24 -26 -52 -42t-66 -31zM-54 692q30 0 30 -46l-104 -169h-25l73 215h26z" />
    <glyph glyph-name="Dasiavariacomb" unicode="&#x1fdd;" 
d="M-170 490q-19 8 -35 14t-30 13t-27 16t-26 23q-27 28 -27 74q0 56 84 56q34 0 63 -7v-34h-17q-77 0 -77 -45q0 -29 23.5 -46.5t70.5 -42.5zM-86 687l72 -195h-26l-102 149q0 13 7 29q9 17 23 17h26z" />
    <glyph glyph-name="Dasiaoxiacomb" unicode="&#x1fde;" 
d="M-178 491q-23 6 -39 11.5t-29.5 13t-25 17t-24.5 23.5q-28 30 -28 74q0 56 85 56q34 0 63 -7v-34h-17q-77 0 -77 -45q0 -14 6 -25t17.5 -21t29 -20t40.5 -22zM-42 683q29 0 29 -45l-93 -148h-25l62 193h27z" />
    <glyph glyph-name="EnQuad" unicode="&#x2000;" horiz-adv-x="500" 
 />
    <glyph glyph-name="EmQuad" unicode="&#x2001;" horiz-adv-x="1000" 
 />
    <glyph glyph-name="enspace" unicode="&#x2002;" horiz-adv-x="500" 
 />
    <glyph glyph-name="EmSpace" unicode="&#x2003;" horiz-adv-x="1000" 
 />
    <glyph glyph-name="ThreePerEmSpace" unicode="&#x2004;" horiz-adv-x="333" 
 />
    <glyph glyph-name="FourPerEmSpace" unicode="&#x2005;" horiz-adv-x="250" 
 />
    <glyph glyph-name="SixPerEmSpace" unicode="&#x2006;" horiz-adv-x="167" 
 />
    <glyph glyph-name="FigureSpace" unicode="&#x2007;" horiz-adv-x="506" 
 />
    <glyph glyph-name="PunctuationSpace" unicode="&#x2008;" horiz-adv-x="147" 
 />
    <glyph glyph-name="ThinSpace" unicode="&#x2009;" horiz-adv-x="85" 
 />
    <glyph glyph-name="HairSpace" unicode="&#x200a;" horiz-adv-x="41" 
 />
    <glyph glyph-name="zerowidthspace" unicode="&#x200b;" 
 />
    <glyph glyph-name="zerowidthnonjoiner" unicode="&#x200c;" 
 />
    <glyph glyph-name="afii301" unicode="&#x200d;" 
 />
    <glyph glyph-name="afii299" unicode="&#x200e;" 
 />
    <glyph glyph-name="afii300" unicode="&#x200f;" 
 />
    <glyph glyph-name="uni2010" unicode="&#x2010;" horiz-adv-x="333" 
d="M319 194h-280v63h280v-63z" />
    <glyph glyph-name="uni2011" unicode="&#x2011;" horiz-adv-x="333" 
d="M319 194h-280v63h280v-63z" />
    <glyph glyph-name="figuredash" unicode="&#x2012;" horiz-adv-x="333" 
d="M319 194h-280v63h280v-63z" />
    <glyph glyph-name="endash" unicode="&#x2013;" horiz-adv-x="488" 
d="M441 208h-402v49h402v-49z" />
    <glyph glyph-name="emdash" unicode="&#x2014;" horiz-adv-x="1008" 
d="M936 143q-14 0 -29 24q-16 25 -39 25q-39 0 -99 -4.5t-144 -14.5l-218 -26q-125 -12 -219 -12q-76 0 -105 23q-33 27 -33 102q0 16 8 21q4 3 23 3q37 0 51 -9q7 -3 9 -27q3 -26 5 -33q19 -39 112 -39q96 0 233 12l117 12t117 11q75 7 126.5 10.5t78.5 3.5q19 0 21 -12
l3 -67q-8 -3 -18 -3z" />
    <glyph glyph-name="horizontalbar" unicode="&#x2015;" horiz-adv-x="500" 
d="M507 250v-49h-514v49h514z" />
    <glyph glyph-name="dblverticalbar" unicode="&#x2016;" horiz-adv-x="515" 
d="M110 -86v911h85v-911h-85zM336 -86v911h85v-911h-85z" />
    <glyph glyph-name="quoteleft" unicode="&#x2018;" horiz-adv-x="253" 
d="M194 463q0 -23 -14.5 -37.5t-37.5 -14.5q-38 0 -62 29.5t-24 75.5q0 79 69 129q23 17 33 22.5t16 5.5q12 0 12 -11q0 -4 -6 -10l-6 -4q-41 -28 -58 -56.5t-17 -59.5q0 -29 15 -29q3 0 5.5 0.5t7.5 2.5l7 3q10 2 15 2q20 0 32.5 -13t12.5 -35z" />
    <glyph glyph-name="quoteright" unicode="&#x2019;" horiz-adv-x="253" 
d="M197 568q0 -77 -70 -129q-23 -17 -33 -22.5t-16 -5.5q-11 0 -11 11q0 5 6 10l6 4q39 26 57 55.5t18 60.5q0 29 -15 29q-4 0 -6.5 -0.5t-7.5 -2.5l-7 -3q-10 -2 -15 -2q-19 0 -31.5 13t-12.5 35q0 23 14.5 37.5t37.5 14.5q37 0 61.5 -29.5t24.5 -75.5z" />
    <glyph glyph-name="quotesinglbase" unicode="&#x201a;" horiz-adv-x="431" 
d="M225 -4q-8 -3 -15 -3q-20 0 -32.5 13.5t-12.5 34.5q0 23 14.5 37.5t37.5 14.5q38 0 62 -29.5t24 -74.5q0 -81 -69 -130q-23 -17 -33 -22.5t-16 -5.5q-11 0 -11 11q0 6 5 10l7 4q38 29 56 57t18 59q0 29 -15 29q-3 0 -5.5 -0.5t-7.5 -2.5z" />
    <glyph glyph-name="quoteleftreversed" unicode="&#x201b;" horiz-adv-x="237" 
d="M47 587q0 35 21.5 62t58.5 27q26 0 42.5 -15.5t16.5 -41.5q0 -28 -18.5 -39.5t-43.5 -11.5q-6 0 -12 2t-12 2q-5 0 -9.5 -4.5t-4.5 -9.5q0 -16 8 -31.5t20.5 -29.5t27 -25.5t26.5 -19.5l-9 -19q-22 10 -42 26t-35.5 36t-25 43t-9.5 49z" />
    <glyph glyph-name="quotedblleft" unicode="&#x201c;" horiz-adv-x="431" 
d="M372 463q0 -23 -14.5 -37.5t-37.5 -14.5q-37 0 -61.5 29.5t-24.5 75.5q0 80 70 129q23 17 33 22.5t16 5.5q11 0 11 -11q0 -5 -6 -10l-6 -4q-42 -28 -58.5 -56t-16.5 -60q0 -29 16 -29q3 0 5.5 0.5t7.5 2.5l7 3q10 2 15 2q19 0 31.5 -13t12.5 -35zM194 463
q0 -23 -14.5 -37.5t-37.5 -14.5q-38 0 -62 29.5t-24 75.5q0 79 69 129q23 17 33 22.5t16 5.5q12 0 12 -11q0 -4 -6 -10l-6 -4q-41 -28 -58 -56.5t-17 -59.5q0 -29 15 -29q3 0 5.5 0.5t7.5 2.5l7 3q10 2 15 2q20 0 32.5 -13t12.5 -35z" />
    <glyph glyph-name="quotedblright" unicode="&#x201d;" horiz-adv-x="431" 
d="M384 568q0 -80 -69 -129q-23 -17 -33 -22.5t-16 -5.5q-12 0 -12 11q0 4 6 10l6 4q41 28 58 56.5t17 59.5q0 29 -15 29q-3 0 -5.5 -0.5t-7.5 -2.5l-7 -3q-10 -2 -15 -2q-20 0 -32.5 13t-12.5 35q0 23 14.5 37.5t37.5 14.5q38 0 62 -29.5t24 -75.5zM206 568q0 -80 -70 -129
q-23 -17 -33 -22.5t-16 -5.5q-11 0 -11 11q0 5 6 10l6 4q42 28 58.5 56t16.5 60q0 29 -16 29q-3 0 -5.5 -0.5t-7.5 -2.5l-7 -3q-10 -2 -15 -2q-19 0 -31.5 13t-12.5 35q0 23 14.5 37.5t37.5 14.5q37 0 61.5 -29.5t24.5 -75.5z" />
    <glyph glyph-name="quotedblbase" unicode="&#x201e;" horiz-adv-x="431" 
d="M118 -4q-8 -3 -15 -3q-19 0 -31.5 13.5t-12.5 34.5q0 23 14.5 37.5t37.5 14.5q37 0 61.5 -29.5t24.5 -74.5q0 -78 -70 -130q-22 -17 -32.5 -22.5t-16.5 -5.5q-11 0 -11 12q0 4 6 9l6 4q39 29 57 57t18 59q0 29 -15 29q-4 0 -6.5 -0.5t-7.5 -2.5zM297 -4q-8 -3 -15 -3
q-20 0 -32.5 13.5t-12.5 34.5q0 23 14.5 37.5t37.5 14.5q38 0 62 -29.5t24 -74.5q0 -82 -69 -130q-23 -17 -33 -22.5t-16 -5.5q-11 0 -11 11q0 7 5 10l7 4q38 29 56 57t18 59q0 29 -15 29q-3 0 -5 -0.5t-8 -2.5z" />
    <glyph glyph-name="quotedblleftaltone" unicode="&#x201f;" horiz-adv-x="431" 
d="M318 578q-5 2 -7.5 2.5t-5.5 0.5q-16 0 -16 -29q0 -32 18 -59.5t57 -56.5l6 -4q6 -5 6 -10q0 -11 -11 -11q-6 0 -16 5.5t-33 22.5q-70 50 -70 129q0 46 24.5 75.5t61.5 29.5q23 0 37.5 -14.5t14.5 -37.5q0 -22 -12.5 -35t-31.5 -13q-5 0 -7.5 0.5l-7.5 1.5zM139 578
q-5 2 -7.5 2.5t-5.5 0.5q-15 0 -15 -29q0 -31 17.5 -59t57.5 -57l6 -4q6 -6 6 -10q0 -11 -12 -11q-6 0 -16 5.5t-33 22.5q-35 25 -52 57.5t-17 71.5q0 46 24 75.5t62 29.5q23 0 37.5 -14.5t14.5 -37.5q0 -22 -12.5 -35t-32.5 -13q-5 0 -15 2z" />
    <glyph glyph-name="Dagger" unicode="&#x2020;" horiz-adv-x="427" 
d="M193 380q0 41 -12 119t-12 118q0 12 13 21q13 3 23 3q26 0 34 -5q12 -5 12 -31q0 -18 -2.5 -45.5t-9.5 -65.5q-6 -37 -8.5 -64.5t-2.5 -47.5v-7h5q-2 0 8.5 1.5t32.5 5.5q48 9 79.5 13t48.5 4q20 0 20 -57q0 -26 -24 -26q-17 0 -38 2.5t-48 7.5l-53 8.5t-32 4.5v-6
q-3 -35 -3 -74q0 -38 4 -97t12 -137q8 -79 12.5 -137.5t4.5 -97.5q0 -34 -43 -34q-28 0 -37 6q-10 9 -10 35q0 37 2.5 91t7.5 128q5 73 7.5 127.5t2.5 90.5q0 18 3 53q2 17 3 30t1 21h-11q-27 0 -81 -12t-81 -12q-21 0 -21 50q0 32 29 32q14 0 34.5 -2.5t47.5 -8.5
q27 -5 47.5 -7.5t34.5 -2.5v5z" />
    <glyph glyph-name="Daggerdbl" unicode="&#x2021;" horiz-adv-x="427" 
d="M45 41q15 0 34.5 -3t44.5 -8q30 -7 49.5 -10.5t29.5 -5.5l-24 180v2q0 21 6 56q5 24 7 38t3 19q0 1 1.5 20t5.5 57q-26 -2 -78 -15q-26 -6 -45.5 -9.5t-33.5 -3.5q-21 0 -25 13q-3 6 -3 29q0 33 21 33q15 0 35.5 -3t46.5 -8q56 -10 82 -12q-2 5 -4.5 28t-7.5 64
q-5 53 -8 80t-3 30q0 31 40 31q35 0 35 -34q0 -18 -3 -42.5t-8 -56.5q-7 -35 -10 -60t-4 -40q5 0 8 -0.5t6 -0.5q26 0 74 12q48 13 75 13h4.5t7.5 -1l7 -9q0 -5 0.5 -11.5t0.5 -13.5q0 -40 -20 -40q-22 0 -49 7l-49 12q-9 2 -26 4t-41 4l15 -136.5t5 -52.5q0 -31 -10 -84
q-9 -57 -9 -85v-6t1 -9l28 6t48 11q46 12 77 12q3 0 7 -0.5t9 -1.5q14 -13 14 -46q0 -25 -24 -25q-15 0 -34.5 3t-45.5 8q-28 6 -48 9t-32 4l5 -47.5t8 -66.5q6 -41 9 -60q2 -11 3 -20q0 -40 -27 -40q-50 0 -50 23q0 15 4 34q6 25 6 34q2 24 5.5 59t10.5 82q-36 0 -87 -12
q-51 -13 -75 -13q-25 0 -25 43q0 24 20 32h10z" />
    <glyph glyph-name="bullet" unicode="&#x2022;" horiz-adv-x="365" 
d="M291 360q0 -23 -8.5 -43t-22.5 -35t-33.5 -23.5t-41.5 -8.5q-23 0 -43 8.5t-35 23.5t-24 35t-9 43q0 22 8.5 41.5t22.5 34t33.5 23t41.5 8.5q23 0 43 -8.5t35 -23t24 -34t9 -41.5z" />
    <glyph glyph-name="trianglebullet" unicode="&#x2023;" horiz-adv-x="366" 
d="M324 307l-245 -216v432z" />
    <glyph glyph-name="onedotenleader" unicode="&#x2024;" horiz-adv-x="244" 
d="M135 96q18 0 32 -17q11 -16 11 -35t-11 -35q-14 -17 -32 -17q-19 0 -31 17q-11 14 -11 35q0 19 11 36q12 16 31 16z" />
    <glyph glyph-name="twodotenleader" unicode="&#x2025;" horiz-adv-x="539" 
d="M135 96q18 0 32 -17q11 -16 11 -35t-11 -35q-14 -17 -32 -17q-19 0 -31 17q-11 14 -11 35q0 19 11 36q12 16 31 16zM364 43q0 19 12 36t31 17t31 -17q11 -17 11 -36t-11 -35q-12 -17 -31 -17q-18 0 -32 17q-11 17 -11 35z" />
    <glyph glyph-name="ellipsis" unicode="&#x2026;" horiz-adv-x="810" 
d="M633 43q0 22 11 36q12 17 31 17q18 0 32 -17q10 -14 10 -35t-10 -35q-14 -17 -32 -17q-20 0 -30 16q-12 16 -12 35zM135 96q18 0 32 -17q11 -16 11 -35t-11 -35q-14 -17 -32 -17q-19 0 -31 17q-11 14 -11 35q0 19 11 36q12 16 31 16zM364 43q0 19 12 36t31 17t31 -17
q11 -17 11 -36t-11 -35q-12 -17 -31 -17q-18 0 -32 17q-11 17 -11 35z" />
    <glyph glyph-name="guilsinglleft" unicode="&#x2039;" horiz-adv-x="266" 
d="M202 464h29l-113 -218l113 -219h-29l-176 219z" />
    <glyph glyph-name="guilsinglright" unicode="&#x203a;" horiz-adv-x="266" 
d="M64 27h-29l114 219l-114 218h29l177 -218z" />
    <glyph glyph-name="referencemark" unicode="&#x203b;" horiz-adv-x="758" 
d="M438 619q0 -24 -17 -41t-42 -17q-23 0 -40.5 17t-17.5 41t17.5 41t40.5 17q25 0 42 -17t17 -41zM712 338q0 -24 -17 -41t-41 -17t-41 17t-17 41q0 25 17 41.5t41 16.5t41 -16.5t17 -41.5zM656 5l-278 277l-277 -277l-57 57l277 277l-277 279l57 57l277 -279l278 279
l57 -57l-277 -279l277 -277zM164 338q0 -24 -16.5 -41t-41.5 -17q-24 0 -41 17t-17 41q0 25 17 41.5t41 16.5q25 0 41.5 -16.5t16.5 -41.5zM438 60q0 -25 -17 -42t-42 -17q-23 0 -40.5 17t-17.5 42q0 24 17.5 41t40.5 17q25 0 42 -17t17 -41z" />
    <glyph glyph-name="overline" unicode="&#x203e;" horiz-adv-x="667" 
d="M667 697h-667v55h667v-55z" />
    <glyph glyph-name="undertie" unicode="&#x203f;" horiz-adv-x="737" 
d="M730 0q-29 -46 -69 -78t-86.5 -52t-97.5 -29t-103 -9q-53 0 -104 9t-97.5 29t-86.5 52t-69 78h53q36 -28 70 -48t69.5 -33t75.5 -19t89 -6q48 0 88 6t75.5 19t69.5 33t70 48h53z" />
    <glyph glyph-name="tie" unicode="&#x2040;" horiz-adv-x="737" 
d="M677 667q-36 28 -70 48.5t-69.5 33.5t-75.5 19t-88 6q-49 0 -89 -6t-75.5 -19t-69.5 -33.5t-70 -48.5h-53q30 46 69.5 78t86 52.5t97.5 29.5t104 9q52 0 103 -9t97.5 -29.5t86 -52.5t69.5 -78h-53z" />
    <glyph glyph-name="closeup" unicode="&#x2050;" horiz-adv-x="737" 
d="M677 667q-36 28 -70 48.5t-69.5 33.5t-75.5 19t-88 6q-49 0 -89 -6t-75.5 -19t-69.5 -33.5t-70 -48.5h-53q30 46 69.5 78t86 52.5t97.5 29.5t104 9q52 0 103 -9t97.5 -29.5t86 -52.5t69.5 -78h-53zM730 0q-29 -46 -69 -78t-86.5 -52t-97.5 -29t-103 -9q-53 0 -104 9
t-97.5 29t-86.5 52t-69 78h53q36 -28 70 -48t69.5 -33t75.5 -19t89 -6q48 0 88 6t75.5 19t69.5 33t70 48h53z" />
    <glyph glyph-name="uni2053" unicode="&#x2053;" horiz-adv-x="472" 
d="M298 169q-41 0 -116 22q-38 11 -66.5 16.5t-48.5 5.5q-13 0 -36 -10q-12 -5 -19 -7.5t-9 -2.5q-5 0 -5 13l-19 5q72 60 150 60q36 0 99 -19q66 -20 99 -20q86 0 128 37l5 1q4 -4 8.5 -9.5l9.5 -11.5q-11 -15 -31 -29t-51 -27q-57 -24 -98 -24z" />
    <glyph glyph-name="invertedundertie" unicode="&#x2054;" horiz-adv-x="737" 
d="M677 -168q-36 28 -70 48t-69.5 33t-75.5 19t-88 6q-49 0 -89 -6t-75.5 -19t-69.5 -33t-70 -48h-53q29 46 69 78t86.5 52t97.5 29t104 9q52 0 103 -9t97.5 -29t86.5 -52t69 -78h-53z" />
    <glyph glyph-name="Threedotleft" unicode="&#x2056;" horiz-adv-x="287" 
d="M267 337q0 -54 -40 -54q-23 0 -41 16q-17 17 -17 40q0 19 18 33q18 12 38 12q42 0 42 -47zM150 200q0 -23 -13 -39q-13 -17 -35 -17t-36 17q-14 19 -14 39q0 19 11 36q12 19 31 19q23 0 39 -16q17 -16 17 -39zM270 45q0 -22 -15.5 -34.5t-38.5 -12.5q-22 0 -40 17
q-18 16 -18 37q0 22 17 36q16 15 40 15q21 0 37 -19q18 -20 18 -39z" />
    <glyph glyph-name="Fourdot" unicode="&#x2058;" horiz-adv-x="413" 
d="M231 314q-24 0 -41 16t-17 40q0 20 19 32q18 12 37 12q41 0 41 -46q0 -54 -39 -54zM343 161q-16 0 -32 16q-16 15 -16 33t17 37q19 19 36 19q46 0 46 -48q0 -24 -14 -40q-14 -17 -37 -17zM120 143q-21 0 -37 18q-14 17 -14 38q0 20 13 37q12 18 30 18q23 0 39 -17
q16 -15 16 -38t-12 -38q-14 -18 -35 -18zM233 -2q-22 0 -41 16q-19 15 -19 37q0 23 18 38q16 13 40 13q20 0 38 -19q17 -19 17 -39q0 -46 -53 -46z" />
    <glyph glyph-name="uni2059" unicode="&#x2059;" horiz-adv-x="468" 
d="M114 314q-23 0 -40.5 16t-17.5 40q0 21 20 32q16 12 37 12q40 0 40 -46q0 -54 -39 -54zM116 -2q-22 0 -41 16q-19 15 -19 37q0 23 18 38q16 13 40 13q22 0 38 -19q17 -19 17 -39q0 -46 -53 -46zM377 314q-23 0 -40.5 16t-17.5 40q0 20 20 32q16 12 37 12q40 0 40 -46
q0 -54 -39 -54zM379 -2q-22 0 -41 16t-19 37q0 23 18 38q17 13 40 13q22 0 38 -19q17 -19 17 -39q0 -46 -53 -46zM295 209q0 -22 -12 -38q-15 -18 -36 -18q-20 0 -35 18t-15 38t11 37q13 19 32 19q23 0 39 -16q16 -17 16 -40z" />
    <glyph glyph-name="dottedcross" unicode="&#x205c;" horiz-adv-x="788" 
d="M676 510q-18 -18 -44 -18.5t-43 19.5q-17 17 -17.5 42.5t17.5 43.5t43.5 18t43.5 -18q19 -18 18.5 -43.5t-18.5 -43.5zM676 74q-18 -19 -43.5 -19t-42.5 19q-18 19 -18.5 43.5t18.5 42.5q17 19 42.5 19t43.5 -18q19 -17 19 -42.5t-19 -44.5zM348 0v306h-314v85h315v276
h84v-275h313v-86h-313v-306h-85zM200 509q-19 -19 -43 -19t-43 19q-18 19 -18 43t18 43q19 18 43 18t43 -18q19 -19 19 -43t-19 -43zM197 71q-18 -19 -44 -19t-43 19q-18 18 -18 43t18 44q17 17 43.5 17t43.5 -17q18 -18 18 -44t-18 -43z" />
    <glyph glyph-name="Euro" unicode="&#x20ac;" horiz-adv-x="506" 
d="M51 354q-8 0 -12 8t-4 17t4 17t12 8h53q8 35 25 71.5t42 77.5q42 67 95 100t97 33q27 0 62 -56q31 -50 31 -83q0 -29 -17 -46q-5 -5 -15 -13t-25 -17l-24 1q-3 43 -22 81q-12 25 -37 37t-43 12q-43 0 -71 -72q-23 -58 -23 -109v-17h201q8 0 12 -8t4 -17t-4.5 -17
t-11.5 -8h-198q2 -11 3.5 -22.5t3.5 -22.5l3 -22h118q8 0 12 -8t4 -17t-4.5 -17t-11.5 -8h-108q6 -19 14 -36t19 -34q43 -72 85 -72q7 0 18.5 1.5t24 4.5t24.5 7t20 10q5 4 16.5 14.5l30.5 27.5l15 -7q-4 -22 -77 -93q-18 -18 -38 -31t-37 -22t-30 -13.5t-18 -4.5
q-69 0 -126 143q-11 28 -20 54t-15 51h-57q-8 0 -12 8t-4 17t4 17t12 8h47q-3 25 -3 49v18h-44v0z" />
    <glyph glyph-name="uni20BD" unicode="&#x20bd;" horiz-adv-x="455" 
d="M34 128q-8 0 -12 8t-4 17t4 17t12 8h25v472q0 29 64 29q131 0 205 -23q117 -39 117 -144q0 -113 -90 -180q-82 -62 -197 -62v-92h245q8 0 12 -8t4 -17t-4.5 -17t-11.5 -8h-245v-112q0 -21 -56 -21q-43 0 -43 21v112h-25zM349 502q0 60 -34 103q-36 48 -94 48
q-63 0 -63 -30v-291q0 -34 19 -34q84 0 130 62q42 55 42 142z" />
    <glyph glyph-name="Circlecomb" unicode="&#x20dd;" horiz-adv-x="382" 
d="M-219 -252q-200 0 -331 137t-131 336t131 336q132 138 331 138t330 -137q132 -138 132 -337t-131 -336t-331 -137zM-219 647q-179 0 -299 -123q-117 -123 -117 -303t118 -304q118 -123 298 -123q179 0 299 124q117 123 117 303t-117 303q-120 123 -299 123z" />
    <glyph glyph-name="Nomer" unicode="&#x2116;" horiz-adv-x="992" 
d="M683 38h29h33t44 1q26 1 45 1.5t33 0.5q59 0 83 -6l1 -39q-39 -3 -65 -3q-101 0 -160 1.5t-75 5.5q-1 7 -1 11v5q0 9 4 22h29zM547 15q0 -24 -45 -24q-54 0 -54 26v131l-290 365v-497q0 -25 -45 -25q-54 0 -54 25v647q0 21 49 21q50 0 50 -21v-96l290 -363v460
q0 20 47 20q52 0 52 -24v-645zM928 369q0 -62 -44 -150q-51 -99 -106 -99q-28 0 -76 57q-58 70 -58 168q0 47 48 143q51 103 92 103q24 0 64 -40q80 -78 80 -182zM856 297q0 102 -45 159q-34 43 -67 43t-33 -111q0 -97 62 -151q24 -21 37 -21q46 0 46 81z" />
    <glyph glyph-name="uni2160" unicode="&#x2160;" horiz-adv-x="215" 
d="M162 16q0 -21 -39 -21q-60 0 -60 21v643q0 20 60 20q39 0 39 -21v-642z" />
    <glyph glyph-name="uni2161" unicode="&#x2161;" horiz-adv-x="424" 
d="M162 16q0 -21 -39 -21q-60 0 -60 21v643q0 20 60 20q39 0 39 -21v-642zM369 16q0 -21 -39 -21q-60 0 -60 21v643q0 20 60 20q39 0 39 -21v-642z" />
    <glyph glyph-name="uni2162" unicode="&#x2162;" horiz-adv-x="646" 
d="M162 16q0 -21 -39 -21q-60 0 -60 21v643q0 20 60 20q39 0 39 -21v-642zM369 16q0 -21 -39 -21q-60 0 -60 21v643q0 20 60 20q39 0 39 -21v-642zM575 16q0 -21 -39 -21q-60 0 -60 21v643q0 20 60 20q39 0 39 -21v-642z" />
    <glyph glyph-name="uni2163" unicode="&#x2163;" horiz-adv-x="711" 
d="M162 16q0 -21 -39 -21q-60 0 -60 21v643q0 20 60 20q39 0 39 -21v-642zM711 540q0 -6 -3 -18t-8 -25t-11.5 -22.5t-14.5 -9.5q-20 0 -29 15.5t-14 33.5l-9.5 33.5t-14.5 15.5q-6 0 -13 -10.5t-14.5 -28t-14.5 -41.5t-13 -51q-46 -209 -66 -370q-8 -63 -19 -63h-26h-27
q-47 0 -54 37l-123 603q0 2 -0.5 5t-0.5 6q0 34 56 34q25 0 33 -4q14 -8 17 -28l110 -554q43 267 90 459q33 136 97 136q30 0 52 -64q20 -54 20 -89z" />
    <glyph glyph-name="uni2164" unicode="&#x2164;" horiz-adv-x="509" 
d="M507 540q0 -6 -3 -18t-8 -25t-11.5 -22.5t-14.5 -9.5q-20 0 -29 15.5t-14 33.5l-9.5 33.5t-14.5 15.5q-6 0 -13 -10.5t-14.5 -28t-14.5 -41.5t-13 -51q-46 -209 -66 -370q-8 -63 -19 -63h-26h-27q-47 0 -54 37l-123 603q0 2 -0.5 5t-0.5 6q0 34 56 34q25 0 33 -4
q14 -8 17 -28l110 -554q43 267 90 459q33 136 97 136q30 0 52 -64q20 -54 20 -89z" />
    <glyph glyph-name="uni2165" unicode="&#x2165;" horiz-adv-x="712" 
d="M507 540q0 -6 -3 -18t-8 -25t-11.5 -22.5t-14.5 -9.5q-20 0 -29 15.5t-14 33.5l-9.5 33.5t-14.5 15.5q-6 0 -13 -10.5t-14.5 -28t-14.5 -41.5t-13 -51q-46 -209 -66 -370q-8 -63 -19 -63h-26h-27q-47 0 -54 37l-123 603q0 2 -0.5 5t-0.5 6q0 34 56 34q25 0 33 -4
q14 -8 17 -28l110 -554q43 267 90 459q33 136 97 136q30 0 52 -64q20 -54 20 -89zM646 16q0 -21 -39 -21q-60 0 -60 21v643q0 20 60 20q39 0 39 -21v-642z" />
    <glyph glyph-name="uni2166" unicode="&#x2166;" horiz-adv-x="922" 
d="M507 540q0 -6 -3 -18t-8 -25t-11.5 -22.5t-14.5 -9.5q-20 0 -29 15.5t-14 33.5l-9.5 33.5t-14.5 15.5q-6 0 -13 -10.5t-14.5 -28t-14.5 -41.5t-13 -51q-46 -209 -66 -370q-8 -63 -19 -63h-26h-27q-47 0 -54 37l-123 603q0 2 -0.5 5t-0.5 6q0 34 56 34q25 0 33 -4
q14 -8 17 -28l110 -554q43 267 90 459q33 136 97 136q30 0 52 -64q20 -54 20 -89zM653 16q0 -21 -39 -21q-60 0 -60 21v643q0 20 60 20q39 0 39 -21v-642zM860 16q0 -21 -39 -21q-60 0 -60 21v643q0 20 60 20q39 0 39 -21v-642z" />
    <glyph glyph-name="uni2167" unicode="&#x2167;" horiz-adv-x="1128" 
d="M507 540q0 -6 -3 -18t-8 -25t-11.5 -22.5t-14.5 -9.5q-20 0 -29 15.5t-14 33.5l-9.5 33.5t-14.5 15.5q-6 0 -13 -10.5t-14.5 -28t-14.5 -41.5t-13 -51q-46 -209 -66 -370q-8 -63 -19 -63h-26h-27q-47 0 -54 37l-123 603q0 2 -0.5 5t-0.5 6q0 34 56 34q25 0 33 -4
q14 -8 17 -28l110 -554q43 267 90 459q33 136 97 136q30 0 52 -64q20 -54 20 -89zM660 16q0 -21 -39 -21q-60 0 -60 21v643q0 20 60 20q39 0 39 -21v-642zM867 16q0 -21 -39 -21q-60 0 -60 21v643q0 20 60 20q39 0 39 -21v-642zM1073 16q0 -21 -39 -21q-60 0 -60 21v643
q0 20 60 20q39 0 39 -21v-642z" />
    <glyph glyph-name="uni2168" unicode="&#x2168;" horiz-adv-x="719" 
d="M162 16q0 -21 -39 -21q-60 0 -60 21v643q0 20 60 20q39 0 39 -21v-642zM421 345q-38 -88 -57 -169.5t-19 -151.5q0 -30 -58 -30q-25 0 -32 7q-11 7 -11 32q0 34 38 124t116 230q-74 128 -110.5 196.5t-36.5 77.5q0 21 46 21q14 0 24 -4.5t16.5 -10.5t10.5 -13t7 -13
l90 -168l23.5 43.5l22 40l19 32.5t13.5 21q52 77 94 77q36 0 57 -31q18 -27 18 -66q0 -17 -2.5 -32.5t-8.5 -30.5q-14 -41 -40 -41q-5 0 -41 51q-36 52 -43 52q-5 0 -14 -11.5t-21 -32l-27 -48t-30 -59.5l226 -404q8 -13 8 -31q0 -8 -6 -8.5t-35 -0.5q-45 0 -58 25z" />
    <glyph glyph-name="uni2169" unicode="&#x2169;" horiz-adv-x="493" 
d="M202 345q-38 -88 -57 -169.5t-19 -151.5q0 -30 -58 -30q-25 0 -32 7q-11 7 -11 32q0 34 38 124t116 230q-74 128 -110.5 196.5t-36.5 77.5q0 21 46 21q14 0 24 -4.5t16.5 -10.5t10.5 -13t7 -13l90 -168l23.5 43.5l22 40l19 32.5t13.5 21q52 77 94 77q36 0 57 -31
q18 -27 18 -66q0 -17 -2.5 -32.5t-8.5 -30.5q-14 -41 -40 -41q-5 0 -41 51q-36 52 -43 52q-5 0 -14 -11.5t-21 -32l-27 -48t-30 -59.5l226 -404q8 -13 8 -31q0 -8 -6 -8.5t-35 -0.5q-45 0 -58 25z" />
    <glyph glyph-name="uni216A" unicode="&#x216a;" horiz-adv-x="707" 
d="M202 345q-38 -88 -57 -169.5t-19 -151.5q0 -30 -58 -30q-25 0 -32 7q-11 7 -11 32q0 34 38 124t116 230q-74 128 -110.5 196.5t-36.5 77.5q0 21 46 21q14 0 24 -4.5t16.5 -10.5t10.5 -13t7 -13l90 -168l23.5 43.5l22 40l19 32.5t13.5 21q52 77 94 77q36 0 57 -31
q18 -27 18 -66q0 -17 -2.5 -32.5t-8.5 -30.5q-14 -41 -40 -41q-5 0 -41 51q-36 52 -43 52q-5 0 -14 -11.5t-21 -32l-27 -48t-30 -59.5l226 -404q8 -13 8 -31q0 -8 -6 -8.5t-35 -0.5q-45 0 -58 25zM638 16q0 -21 -39 -21q-60 0 -60 21v643q0 20 60 20q39 0 39 -21v-642z" />
    <glyph glyph-name="uni216B" unicode="&#x216b;" horiz-adv-x="940" 
d="M202 345q-38 -88 -57 -169.5t-19 -151.5q0 -30 -58 -30q-25 0 -32 7q-11 7 -11 32q0 34 38 124t116 230q-74 128 -110.5 196.5t-36.5 77.5q0 21 46 21q14 0 24 -4.5t16.5 -10.5t10.5 -13t7 -13l90 -168l23.5 43.5l22 40l19 32.5t13.5 21q52 77 94 77q36 0 57 -31
q18 -27 18 -66q0 -17 -2.5 -32.5t-8.5 -30.5q-14 -41 -40 -41q-5 0 -41 51q-36 52 -43 52q-5 0 -14 -11.5t-21 -32l-27 -48t-30 -59.5l226 -404q8 -13 8 -31q0 -8 -6 -8.5t-35 -0.5q-45 0 -58 25zM659 16q0 -21 -39 -21q-60 0 -60 21v643q0 20 60 20q39 0 39 -21v-642z
M866 16q0 -21 -39 -21q-60 0 -60 21v643q0 20 60 20q39 0 39 -21v-642z" />
    <glyph glyph-name="uni216C" unicode="&#x216c;" horiz-adv-x="440" 
d="M399 203q32 0 32 -125q0 -13 -0.5 -19t-1 -9t-1.5 -5t-2 -6q-12 -39 -49 -39h-293q-25 0 -25 21v634q0 24 48 24q51 0 51 -22v-568q0 -32 21 -44q16 -8 51 -8h21q26 0 49.5 12.5t38.5 38.5l7 10.5t6 10.5t7 16t9 27q15 51 31 51z" />
    <glyph glyph-name="uni216D" unicode="&#x216d;" horiz-adv-x="414" 
d="M129 309q5 -47 15.5 -78.5t30.5 -63.5q43 -72 85 -72q7 0 18.5 1.5t24 4.5t24.5 7t20 10q5 4 16.5 14.5l30.5 27.5l15 -7q-4 -22 -77 -93q-18 -18 -38 -31t-37 -22t-30 -13.5t-18 -4.5q-69 0 -126 143q-48 120 -48 204q0 94 76 217q42 67 95 100t97 33q27 0 62 -56
q31 -50 31 -83q0 -29 -17 -46q-5 -5 -15 -13t-25 -17l-24 1q-3 43 -22 81q-12 25 -37 37t-43 12q-43 0 -71 -72q-23 -58 -23 -109q0 -29 2.5 -57t7.5 -55z" />
    <glyph glyph-name="uni216E" unicode="&#x216e;" horiz-adv-x="562" 
d="M297 680q43 0 86 -27.5t77 -74.5t55 -110t21 -134q0 -68 -19 -129t-51.5 -106.5t-76.5 -72t-95 -26.5h-179q-54 0 -54 24v633q0 10 11.5 16.5t35.5 6.5h189zM234 43q53 12 87 36t54 59.5t27.5 82.5t7.5 107q0 24 -2.5 57.5t-9 69t-19.5 70t-33.5 61.5t-50.5 44t-71 17
h-64v-608q13 -1 26 -1q11 0 24 1t24 4z" />
    <glyph glyph-name="uni216F" unicode="&#x216f;" horiz-adv-x="697" 
d="M671 13q0 -21 -42 -21q-57 0 -57 21l5 559l-10 -1q-35 -212 -54 -302q-51 -230 -99 -262q-22 -14 -52 -14q-68 0 -113 150q-8 25 -19 77t-26 133l-40 218h-11l5 -558q0 -21 -46 -21q-53 0 -53 21v648q0 18 19 18h86q15 0 21 -30l65 -305q48 -226 123 -226q67 0 127 286
l51 245q6 30 24 30h80q16 0 16 -18v-648z" />
    <glyph glyph-name="uni2170" unicode="&#x2170;" horiz-adv-x="231" 
d="M155 565q0 -34 -45 -34q-41 0 -41 35v68q0 32 41 32q45 0 45 -35v-66zM159 10q0 -17 -33 -17h-29q-24 0 -24 17v434q0 17 31 17h22q33 0 33 -17v-434z" />
    <glyph glyph-name="uni2171" unicode="&#x2171;" horiz-adv-x="428" 
d="M155 565q0 -34 -45 -34q-41 0 -41 35v68q0 32 41 32q45 0 45 -35v-66zM159 10q0 -17 -33 -17h-29q-24 0 -24 17v434q0 17 31 17h22q33 0 33 -17v-434zM345 565q0 -34 -45 -34q-41 0 -41 35v68q0 32 41 32q45 0 45 -35v-66zM349 10q0 -17 -33 -17h-29q-24 0 -24 17v434
q0 17 31 17h22q33 0 33 -17v-434z" />
    <glyph glyph-name="uni2172" unicode="&#x2172;" horiz-adv-x="616" 
d="M155 565q0 -34 -45 -34q-41 0 -41 35v68q0 32 41 32q45 0 45 -35v-66zM159 10q0 -17 -33 -17h-29q-24 0 -24 17v434q0 17 31 17h22q33 0 33 -17v-434zM345 565q0 -34 -45 -34q-41 0 -41 35v68q0 32 41 32q45 0 45 -35v-66zM349 10q0 -17 -33 -17h-29q-24 0 -24 17v434
q0 17 31 17h22q33 0 33 -17v-434zM537 565q0 -34 -45 -34q-41 0 -41 35v68q0 32 41 32q45 0 45 -35v-66zM541 10q0 -17 -33 -17h-29q-24 0 -24 17v434q0 17 31 17h22q33 0 33 -17v-434z" />
    <glyph glyph-name="uni2173" unicode="&#x2173;" horiz-adv-x="650" 
d="M155 565q0 -34 -45 -34q-41 0 -41 35v68q0 32 41 32q45 0 45 -35v-66zM159 10q0 -17 -33 -17h-29q-24 0 -24 17v434q0 17 31 17h22q33 0 33 -17v-434zM650 366q0 -19 -12 -44q-14 -30 -29 -30q-8 0 -30 36q-22 37 -28 37q-9 0 -23 -36.5t-34 -107.5q-17 -63 -27 -107.5
t-14 -72.5q0 -5 -1 -12.5t-3 -17.5q-3 -12 -13 -12l-66 1q-17 0 -27 24q-8 16 -22 67.5t-36 139.5q-21 88 -32.5 142.5t-11.5 69.5q0 23 57 23q32 0 36 -22l89 -378l29.5 142.5t21.5 88.5q49 171 112 171q24 0 45 -40q19 -34 19 -62z" />
    <glyph glyph-name="uni2174" unicode="&#x2174;" horiz-adv-x="438" 
d="M437 366q0 -19 -12 -44q-14 -30 -29 -30q-8 0 -30 36q-22 37 -28 37q-9 0 -23 -36.5t-34 -107.5q-17 -63 -27 -107.5t-14 -72.5q0 -5 -1 -12.5t-3 -17.5q-3 -12 -13 -12l-66 1q-17 0 -27 24q-8 16 -22 67.5t-36 139.5q-21 88 -32.5 142.5t-11.5 69.5q0 23 57 23
q32 0 36 -22l89 -378l29.5 142.5t21.5 88.5q49 171 112 171q24 0 45 -40q19 -34 19 -62z" />
    <glyph glyph-name="uni2175" unicode="&#x2175;" horiz-adv-x="659" 
d="M437 366q0 -19 -12 -44q-14 -30 -29 -30q-8 0 -30 36q-22 37 -28 37q-9 0 -23 -36.5t-34 -107.5q-17 -63 -27 -107.5t-14 -72.5q0 -5 -1 -12.5t-3 -17.5q-3 -12 -13 -12l-66 1q-17 0 -27 24q-8 16 -22 67.5t-36 139.5q-21 88 -32.5 142.5t-11.5 69.5q0 23 57 23
q32 0 36 -22l89 -378l29.5 142.5t21.5 88.5q49 171 112 171q24 0 45 -40q19 -34 19 -62zM578 565q0 -34 -45 -34q-41 0 -41 35v68q0 32 41 32q45 0 45 -35v-66zM582 10q0 -17 -33 -17h-29q-24 0 -24 17v434q0 17 31 17h22q33 0 33 -17v-434z" />
    <glyph glyph-name="uni2176" unicode="&#x2176;" horiz-adv-x="823" 
d="M437 366q0 -19 -12 -44q-14 -30 -29 -30q-8 0 -30 36q-22 37 -28 37q-9 0 -23 -36.5t-34 -107.5q-17 -63 -27 -107.5t-14 -72.5q0 -5 -1 -12.5t-3 -17.5q-3 -12 -13 -12l-66 1q-17 0 -27 24q-8 16 -22 67.5t-36 139.5q-21 88 -32.5 142.5t-11.5 69.5q0 23 57 23
q32 0 36 -22l89 -378l29.5 142.5t21.5 88.5q49 171 112 171q24 0 45 -40q19 -34 19 -62zM564 565q0 -34 -45 -34q-41 0 -41 35v68q0 32 41 32q45 0 45 -35v-66zM568 10q0 -17 -33 -17h-29q-24 0 -24 17v434q0 17 31 17h22q33 0 33 -17v-434zM754 565q0 -34 -45 -34
q-41 0 -41 35v68q0 32 41 32q45 0 45 -35v-66zM758 10q0 -17 -33 -17h-29q-24 0 -24 17v434q0 17 31 17h22q33 0 33 -17v-434z" />
    <glyph glyph-name="uni2177" unicode="&#x2177;" horiz-adv-x="1029" 
d="M437 366q0 -19 -12 -44q-14 -30 -29 -30q-8 0 -30 36q-22 37 -28 37q-9 0 -23 -36.5t-34 -107.5q-17 -63 -27 -107.5t-14 -72.5q0 -5 -1 -12.5t-3 -17.5q-3 -12 -13 -12l-66 1q-17 0 -27 24q-8 16 -22 67.5t-36 139.5q-21 88 -32.5 142.5t-11.5 69.5q0 23 57 23
q32 0 36 -22l89 -378l29.5 142.5t21.5 88.5q49 171 112 171q24 0 45 -40q19 -34 19 -62zM572 565q0 -34 -45 -34q-41 0 -41 35v68q0 32 41 32q45 0 45 -35v-66zM576 10q0 -17 -33 -17h-29q-24 0 -24 17v434q0 17 31 17h22q33 0 33 -17v-434zM762 565q0 -34 -45 -34
q-41 0 -41 35v68q0 32 41 32q45 0 45 -35v-66zM766 10q0 -17 -33 -17h-29q-24 0 -24 17v434q0 17 31 17h22q33 0 33 -17v-434zM954 565q0 -34 -45 -34q-41 0 -41 35v68q0 32 41 32q45 0 45 -35v-66zM958 10q0 -17 -33 -17h-29q-24 0 -24 17v434q0 17 31 17h22q33 0 33 -17
v-434z" />
    <glyph glyph-name="uni2178" unicode="&#x2178;" horiz-adv-x="634" 
d="M155 565q0 -34 -45 -34q-41 0 -41 35v68q0 32 41 32q45 0 45 -35v-66zM159 10q0 -17 -33 -17h-29q-24 0 -24 17v434q0 17 31 17h22q33 0 33 -17v-434zM426 296q100 -145 140.5 -220t40.5 -78q0 -9 -28 -9q-65 0 -79 23l-122 200l-22.5 -40.5t-12.5 -25.5l-11.5 -28.5
l-20.5 -50.5q-36 -83 -56 -83q-23 0 -23 18q0 11 3.5 22t16.5 34l38.5 65l70.5 114l-141 219q8 11 52 11q48 0 58 -14l80 -135l62 89q41 61 86 61q51 0 51 -64q0 -7 -0.5 -11t-1.5 -8t-3 -8.5l-5 -11.5q-3 -8 -11 -15t-22 -7q-1 0 -5 0.5t-9.5 3.5t-11 8.5t-9.5 15.5
q-8 20 -16 22t-10 2q-19 0 -79 -99z" />
    <glyph glyph-name="uni2179" unicode="&#x2179;" horiz-adv-x="433" 
d="M223 296q100 -145 140.5 -220t40.5 -78q0 -9 -28 -9q-65 0 -79 23l-122 200l-22.5 -40.5t-12.5 -25.5l-11.5 -28.5l-20.5 -50.5q-36 -83 -56 -83q-23 0 -23 18q0 11 3.5 22t16.5 34l38.5 65l70.5 114l-141 219q8 11 52 11q48 0 58 -14l80 -135l62 89q41 61 86 61
q51 0 51 -64q0 -7 -0.5 -11t-1.5 -8t-3 -8.5l-5 -11.5q-3 -8 -11 -15t-22 -7q-1 0 -5 0.5t-9.5 3.5t-11 8.5t-9.5 15.5q-8 20 -16 22t-10 2q-19 0 -79 -99z" />
    <glyph glyph-name="uni217A" unicode="&#x217a;" horiz-adv-x="623" 
d="M223 296q100 -145 140.5 -220t40.5 -78q0 -9 -28 -9q-65 0 -79 23l-122 200l-22.5 -40.5t-12.5 -25.5l-11.5 -28.5l-20.5 -50.5q-36 -83 -56 -83q-23 0 -23 18q0 11 3.5 22t16.5 34l38.5 65l70.5 114l-141 219q8 11 52 11q48 0 58 -14l80 -135l62 89q41 61 86 61
q51 0 51 -64q0 -7 -0.5 -11t-1.5 -8t-3 -8.5l-5 -11.5q-3 -8 -11 -15t-22 -7q-1 0 -5 0.5t-9.5 3.5t-11 8.5t-9.5 15.5q-8 20 -16 22t-10 2q-19 0 -79 -99zM554 565q0 -34 -45 -34q-41 0 -41 35v68q0 32 41 32q45 0 45 -35v-66zM558 10q0 -17 -33 -17h-29q-24 0 -24 17v434
q0 17 31 17h22q33 0 33 -17v-434z" />
    <glyph glyph-name="uni217B" unicode="&#x217b;" horiz-adv-x="860" 
d="M223 296q100 -145 140.5 -220t40.5 -78q0 -9 -28 -9q-65 0 -79 23l-122 200l-22.5 -40.5t-12.5 -25.5l-11.5 -28.5l-20.5 -50.5q-36 -83 -56 -83q-23 0 -23 18q0 11 3.5 22t16.5 34l38.5 65l70.5 114l-141 219q8 11 52 11q48 0 58 -14l80 -135l62 89q41 61 86 61
q51 0 51 -64q0 -7 -0.5 -11t-1.5 -8t-3 -8.5l-5 -11.5q-3 -8 -11 -15t-22 -7q-1 0 -5 0.5t-9.5 3.5t-11 8.5t-9.5 15.5q-8 20 -16 22t-10 2q-19 0 -79 -99zM577 565q0 -34 -45 -34q-41 0 -41 35v68q0 32 41 32q45 0 45 -35v-66zM581 10q0 -17 -33 -17h-29q-24 0 -24 17v434
q0 17 31 17h22q33 0 33 -17v-434zM767 565q0 -34 -45 -34q-41 0 -41 35v68q0 32 41 32q45 0 45 -35v-66zM771 10q0 -17 -33 -17h-29q-24 0 -24 17v434q0 17 31 17h22q33 0 33 -17v-434z" />
    <glyph glyph-name="uni217C" unicode="&#x217c;" horiz-adv-x="212" 
d="M151 8q0 -18 -48 -18q-42 0 -42 19v653q0 20 45 20t45 -19v-655z" />
    <glyph glyph-name="uni217D" unicode="&#x217d;" horiz-adv-x="328" 
d="M288 119q-2 -4 -9.5 -27t-32.5 -49t-49 -38.5t-29 -12.5q-23 0 -59 42q-68 82 -68 199q0 38 15 78.5t46 82.5q27 37 53.5 55.5t41.5 18.5q33 0 60 -43q23 -38 23 -74q0 -15 -11 -34q-15 -21 -28 -21l-36 53q-14 19 -30.5 28t-24.5 9q-19 0 -28.5 -33t-9.5 -95
q0 -41 27 -101q31 -69 67 -69q3 0 22.5 15t45.5 30q7 1 15 0.5t-1 -14.5z" />
    <glyph glyph-name="uni217E" unicode="&#x217e;" horiz-adv-x="461" 
d="M305 393q-17 -10 -43 -17.5t-50.5 -26t-42 -55.5t-17.5 -106q0 -24 4.5 -51.5t13.5 -51.5t23.5 -40t34.5 -16h40q23 0 30 6t7 20v338zM401 34q0 -19 -14 -26.5t-36 -7.5h-158q-32 0 -57.5 11t-43.5 29t-28 41.5t-10 48.5q0 69 12 113t41 76t77.5 58t120.5 59v192
q0 12 13 18t33 6t35 -6t15 -19v-593z" />
    <glyph glyph-name="uni217F" unicode="&#x217f;" horiz-adv-x="697" 
d="M454 457q40 0 67.5 -5t46 -15.5t30 -27t19.5 -38.5q4 -11 6.5 -32.5t4 -43t2 -39.5t0.5 -22l-1 -226q0 -8 -13 -8h-39t-34.5 2t-8.5 7v254q0 30 -2.5 59t-11 52.5t-25 37.5t-43.5 14q-14 0 -25.5 -0.5t-19.5 -0.5h-18l-2 -385v-32q0 -8 -20 -8q-5 -1 -10.5 -1h-12.5h-14
t-11 1q-17 0 -22 2t-5 7v254q0 30 -2.5 59t-11 52.5t-25 37.5t-43.5 14q-14 0 -25.5 -0.5t-19.5 -0.5h-18l-2 -410q0 -8 -8.5 -12t-34.5 -4q-52 0 -52 16v441h20q15 0 48 0.5t94 0.5h242z" />
    <glyph glyph-name="Arrowleft" unicode="&#x2190;" horiz-adv-x="688" 
d="M191 294q-26 -55 -66 -104h537v-33h-537q36 -36 67 -104h-26q-76 85 -140 114v16q61 24 140 111h25z" />
    <glyph glyph-name="Arrowup" unicode="&#x2191;" horiz-adv-x="386" 
d="M61 366q102 93 131 164h18q35 -77 135 -164v-31q-82 38 -122 78v-582h-40v582q-56 -46 -122 -77v30z" />
    <glyph glyph-name="Arrowright" unicode="&#x2192;" horiz-adv-x="810" 
d="M615 347q93 -104 163 -132v-18q-77 -35 -163 -135h-31q38 82 78 122h-631v40h631q-46 57 -77 123h30z" />
    <glyph glyph-name="Arrowdown" unicode="&#x2193;" horiz-adv-x="386" 
d="M61 24q33 -17 63.5 -35.5t58.5 -41.5v583h40v-583q41 41 122 77v-30q-100 -86 -135 -163h-18q-29 70 -131 163v30z" />
    <glyph glyph-name="Arrowboth" unicode="&#x2194;" horiz-adv-x="810" 
d="M778 196q-70 -31 -160 -134h-32q26 67 77 124h-516q51 -57 77 -124h-32q-90 103 -161 134v17q71 31 161 134h32q-27 -66 -77 -123h516q-50 57 -77 123h32q90 -103 160 -134v-17z" />
    <glyph glyph-name="angleleft" unicode="&#x2329;" horiz-adv-x="366" 
d="M76 269l163 421l42 -16l-156 -405l157 -413l-42 -16z" />
    <glyph glyph-name="angleright" unicode="&#x232a;" horiz-adv-x="366" 
d="M124 -160l-42 16l157 413l-156 405l42 16l163 -421z" />
    <glyph glyph-name="uni2720" unicode="&#x2720;" horiz-adv-x="790" 
d="M362 323q-130 0 -313 -79v201q184 -74 313 -74q-2 114 -70 316h201q-74 -195 -75 -316q140 0 318 74v-201q-93 39 -171.5 59t-145.5 20q0 -72 23 -164q13 -51 51 -159h-201q35 94 52.5 174t17.5 149z" />
    <glyph glyph-name="glAZU" unicode="&#x2c00;" horiz-adv-x="531" 
d="M469 116q-46 0 -46 7v33.5t1 46.5v80q0 23 -21 29h-41q-39 0 -39 -32q0 -20 0.5 -49.5t1.5 -69.5t1 -69.5v-49.5q0 -28 -6 -38q-10 -13 -35 -13q-54 0 -54 16v295q0 11 -43 11q-44 0 -44 -20v-170q0 -7 -51 -7q-45 0 -45 6v205q0 19 10 19h136q37 0 37 50v271q0 10 56 10
q25 0 33 -9q4 -5 4 -33v-241q0 -53 68 -53q12 0 38 3q27 3 40 3q41 0 41 -28v-197q0 -6 -42 -6z" />
    <glyph glyph-name="glBUKY" unicode="&#x2c01;" horiz-adv-x="559" 
d="M83 -2q-39 0 -39 48v619q0 8 49 8q28 0 36 -6q4 -3 6 -49q1 -17 0.5 -38.5t-0.5 -49.5q-1 -33 -1 -48t0 -13q0 -35 64 -35t64 39l-3 196q9 5 44 5q21 0 30 -4l2 -197q0 -35 60 -35t60 35l-2 196q9 5 29 5q47 0 58 -4v-245q0 -18 -7 -23.5t-26 -5.5h-326q-47 0 -47 -63
v-216q0 -66 74 -66q115 0 208 21q5 2 18 6t35 12q31 12 54 12q19 0 19 -26q0 -43 -7 -56q-12 -22 -50 -22h-402z" />
    <glyph glyph-name="glVEDE" unicode="&#x2c02;" horiz-adv-x="712" 
d="M607 336q-18 0 -46 13q-37 -6 -37 -67q0 -12 3 -34q3 -24 3 -34q0 -77 -33 -140q-40 -77 -111 -77q-86 0 -130 61q-39 54 -39 143q0 -2 1.5 4t5.5 18q3 12 4 25.5t1 30.5q0 55 -39 64q-18 -5 -32 -5q-106 0 -106 199l-1 1q3 58 46 100t103 42q135 0 135 -219
q0 -40 -2.5 -77t-9.5 -72l-12.5 -81t-4.5 -40q0 -121 95 -121q94 0 94 183q0 21 -16 79q-25 96 -25 173q0 175 119 175q72 0 105 -71q24 -51 24 -133q0 -51 -21 -91q-28 -49 -74 -49zM565 625q-65 0 -65 -122q0 -123 63 -123q73 0 73 117q0 42 -15 80q-20 48 -56 48z
M207 646q-83 0 -83 -152q0 -111 79 -111q40 0 62 41q18 33 18 77q0 145 -76 145z" />
    <glyph glyph-name="glGLAGOLI" unicode="&#x2c03;" horiz-adv-x="635" 
d="M529 -18q-50 0 -74 33q-18 24 -27 80q-1 6 -1.5 10t-0.5 8q0 10 3 31q1 11 1.5 18.5t0.5 12.5q0 20 -11 36t-31 16q-101 -61 -125 -124l-22 -75q-15 -25 -72 -25q-41 0 -41 18q0 27 44 115q44 87 44 137q0 57 -41 57q-8 0 -21 -6q-11 -7 -20 -7t-28 13q-66 48 -66 135
q0 14 2.5 31.5t8.5 38.5q24 92 62 123q39 30 134 30q52 0 79 -63q19 -47 19 -109q0 -49 -28 -137q-28 -87 -28 -136q0 -25 20 -25q7 0 11 1q114 82 207 82q44 0 73 -47q25 -38 25 -87q0 -67 -17 -116q-26 -69 -80 -69zM209 646q-38 0 -62 -67q-16 -48 -16 -100q0 -46 16 -78
q21 -43 61 -43q37 0 63 75q18 58 18 109q0 36 -21 68q-24 36 -59 36zM509 253q-43 0 -43 -103q0 -26 2 -45t5 -30q12 -44 51 -44q50 0 50 130q0 92 -65 92z" />
    <glyph glyph-name="glDOBRO" unicode="&#x2c04;" horiz-adv-x="689" 
d="M533 -1q-74 0 -110 69q-27 54 -27 135q0 47 18 139q18 91 18 138q0 152 -90 152q-94 0 -94 -149q0 -87 15 -150q23 -98 23 -173q0 -160 -123 -160q-62 0 -97 65q-30 54 -30 120q0 20 4 41.5t12 44.5q18 56 48 69q18 4 36 7.5l37 7.5q41 12 41 53q0 16 -6 46
q-4 15 -5.5 26.5t-1.5 19.5q0 82 36 130q42 54 120 54q77 0 120 -59q39 -53 39 -131q0 -11 -3 -32t-3 -32q0 -52 22 -63l66 -16q81 -26 81 -161q0 -92 -27 -135q-33 -56 -119 -56zM537 320q-38 0 -61 -35q-21 -32 -21 -71q0 -166 84 -166q46 0 67 57q15 40 15 96
q0 45 -19 79q-24 40 -65 40zM166 325q-32 0 -48 -52q-12 -36 -12 -77q0 -45 18 -85q21 -52 59 -52q56 0 56 116q0 16 -3 58q-3 53 -7 61q-8 18 -53 29q-8 2 -10 2z" />
    <glyph glyph-name="glESTU" unicode="&#x2c05;" horiz-adv-x="498" 
d="M247 -3q-83 0 -150 65q-64 65 -64 149q0 15 33 15q42 0 60 -8.5t20 -25.5q1 -2 0.5 -3.5t-0.5 -3.5q-1 -4 -1 -9q0 -45 23 -85q14 -23 37 -35t45 -12q52 0 79 59q21 45 21 103q0 56 -47 56q-27 -14 -53 -14q-34 0 -34 26q0 16 37 16q10 0 30 -6q19 -6 29 -6q55 0 55 58
q0 67 -52 67q-6 0 -15 -1.5t-20 -6.5q-24 -8 -35 -8q-29 0 -29 17q0 27 48 30q25 -16 48 -16q16 0 37 19q19 18 19 36q0 58 -24 106q-30 61 -83 61q-23 0 -48.5 -10.5t-39.5 -31.5q-25 -37 -25 -83q0 -17 -15.5 -26.5t-61.5 -9.5q-32 0 -32 17q0 76 68 133q64 54 145 54
q116 0 176 -126q23 -49 30 -105t7 -120q0 -63 -7.5 -117.5t-32.5 -100.5q-62 -117 -178 -117z" />
    <glyph glyph-name="glZHIVETE" unicode="&#x2c06;" horiz-adv-x="683" 
d="M528 -2q-56 0 -93 75q-31 62 -31 126q0 7 1.5 17.5l3.5 24.5q6 28 6 42q0 80 -59 80q-64 0 -64 -88q0 -9 1 -21.5t3 -29.5l3.5 -30t1.5 -22q0 -69 -27 -117q-34 -58 -98 -58q-71 0 -113 68q-36 58 -36 134q0 58 41 105q43 49 100 49q5 0 11.5 -1t14.5 -3q16 -4 26 -4
q38 0 65 21q28 22 28 60q0 53 -55 99q-52 46 -107 46q-5 0 -10.5 -0.5t-11.5 -1.5q-4 -7 -10 -7q-8 0 -8 5q0 27 29 73q32 47 57 47q28 0 59 -43l48 -81q27 -43 48 -43q25 0 53 43l48 82q31 43 62 43q21 0 48 -44q26 -39 26 -65q0 -2 -0.5 -4.5t-0.5 -4.5q-13 -5 -25 -5
q-11 0 -23 6q-52 -10 -94 -60q-40 -50 -40 -105q0 -59 72 -59q10 0 31 6t32 6q65 0 101 -56q30 -48 30 -117q0 -68 -37 -124q-44 -64 -107 -64zM445 204q0 -18 4 -34q14 -56 23 -73q21 -37 62 -37q33 0 57 44q20 38 20 75q0 52 -13 87q-21 50 -63 50q-43 0 -68 -36
q-22 -31 -22 -76zM166 308q-30 0 -51 -48q-17 -40 -17 -74q0 -46 24 -83q27 -44 69 -44q36 0 57 38q16 32 16 71q0 13 -3 27q-7 54 -20 75q-18 27 -67 37q-3 1 -8 1z" />
    <glyph glyph-name="glDZELO" unicode="&#x2c07;" horiz-adv-x="569" 
d="M566 357q0 -16 -9 -32l-161 -307q-11 -20 -71 -20q-56 0 -69 20l-216 314q-10 13 -10 25q0 27 32 27h232q12 10 12 24q0 38 -33 38q-46 0 -73 47q-23 40 -23 89q0 52 40 85q38 32 90 32q47 0 79 -38q29 -37 29 -85q0 -32 -25 -83q-24 -54 -24 -80q0 -29 24 -29h147
q29 0 29 -27zM450 319q0 31 -39 31h-35q-25 0 -59 -84q-30 -77 -30 -108q0 -20 14 -43q17 -25 35 -25q23 0 70 101q44 94 44 128zM295 331q0 24 -30 24h-75q-49 0 -49 -34q0 -19 34 -71q35 -53 51 -53q18 0 45 57q24 54 24 77zM305 649q-37 0 -58 -28q-19 -25 -19 -64
q0 -35 20 -58q18 -24 53 -24q33 0 53 29q21 25 21 59q0 33 -18 59q-20 27 -52 27z" />
    <glyph glyph-name="glZEMLYA" unicode="&#x2c08;" horiz-adv-x="579" 
d="M492 396q-30 0 -55 80q-27 79 -41 79q-22 0 -48 -44l-10 -19.5l-22 -43.5q9 -53 13 -94.5t4 -72.5q0 -156 -102 -267q-24 -26 -35 -26q-80 0 -129 159q-37 120 -37 228q0 72 32 141q31 68 87 115q26 20 34 20q27 0 52 -34q4 -5 13 -20.5l25 -42.5q21 -33 33 -33
q18 0 38 42l19.5 42.5l18.5 41.5q26 51 55 61q13 5 37 5q7 0 25 -5q8 -2 14.5 -3t10.5 -1q53 0 53 -84q0 -133 -51 -200q-18 -24 -34 -24zM478 677q-48 0 -48 -80q0 -23 20 -71q23 -52 43 -52q15 0 24 42q7 29 7 55q0 106 -46 106zM90 343q0 -43 32 -43q7 0 15 3q16 6 55 59
q37 52 42 71q4 12 4 28q0 30 -12 60q-17 36 -42 36q-30 0 -59 -50q-25 -44 -26 -78q-1 -6 -2 -16.5t-4 -26.5q-3 -27 -3 -43zM257 364q-26 0 -71 -54q-39 -48 -49 -80q-8 -23 -8 -63q0 -70 47 -70q60 0 89 77q20 54 20 126q0 64 -28 64z" />
    <glyph glyph-name="glIZHE" unicode="&#x2c09;" horiz-adv-x="640" 
d="M446 -1h-222l-1 4q0 11 18 25l20.5 17.5t12.5 14.5q18 24 18 61v214q0 58 -35 58q-10 0 -46 -30q-37 -29 -56 -29q-56 0 -90 55q-28 44 -28 106q0 20 5 48q19 85 61 115q39 27 128 27h211q87 0 128 -30q45 -34 58 -117q3 -21 3 -43q0 -63 -28 -107q-33 -54 -90 -54
q-19 0 -56 29q-36 30 -46 30q-34 0 -34 -58v-214q0 -31 19 -67q22 -39 51 -45zM513 628q-83 0 -83 -145q0 -18 5 -34.5t14 -33.5q23 -37 56 -37t56 51q18 42 18 81q0 37 -15 73q-20 45 -51 45zM290 643q-11 0 -19 -20q-8 -15 -8 -29q0 -6 6 -33l16 -90q16 -64 48 -64
q29 0 42 47q27 94 27 141q0 48 -30 48h-82zM154 631q-34 0 -52 -45q-15 -35 -15 -73q0 -40 18 -80q21 -53 54 -53q34 0 57 39q19 34 19 71q0 141 -81 141z" />
    <glyph glyph-name="glINITIALIZHE" unicode="&#x2c0a;" horiz-adv-x="642" 
d="M524 389q-13 0 -38 9q-23 10 -37 10q-38 0 -38 -43q0 -38 79 -177q80 -140 80 -169q0 -20 -25 -20h-423q-26 0 -26 20q0 25 79 167q80 139 80 179q0 43 -39 43q-14 0 -35 -10q-23 -9 -35 -9q-54 0 -87 52q-29 46 -29 102q0 61 46 98q42 35 104 35h308q61 0 103 -35
q46 -39 46 -98q0 -54 -28 -101q-32 -53 -85 -53zM501 624q-33 0 -59 -41q-23 -37 -23 -72q0 -29 23 -46q21 -15 52 -15q33 0 59 30q24 30 24 63q0 43 -17 62t-59 19zM310 636q-25 0 -31 -6q-5 -7 -5 -33q0 -39 15 -94q18 -70 44 -70q22 0 42 71q17 60 17 93q0 25 -10 33
q-9 6 -33 6h-39zM169 624q-78 0 -78 -81q0 -33 26 -64q25 -28 60 -28q71 0 71 60q0 39 -21 72q-24 41 -58 41zM333 343q-11 0 -64 -116q-53 -113 -53 -142q0 -34 54 -34h126q54 0 54 38q0 31 -88 223q-13 31 -29 31z" />
    <glyph glyph-name="glI" unicode="&#x2c0b;" horiz-adv-x="546" 
d="M400 426q0 -30 33 -52q45 -32 61 -54q32 -45 32 -133q0 -89 -73 -147q-68 -53 -160 -53q-90 0 -156 54q-72 58 -72 146q0 130 69 172q6 4 15 9.5t20 13.5q15 19 14 56v5q-143 197 -143 215q0 26 28 26h443q18 0 18 -7q0 -24 -65 -125q-64 -102 -64 -126zM216 649
q-18 0 -30 -18q-10 -14 -10 -34q0 -17 10.5 -41t33.5 -55q45 -65 76 -65q32 0 74 69q39 66 39 101q0 43 -41 43h-152zM375 386q-20 -11 -39.5 -29t-40.5 -42q-42 54 -82 79q-73 -75 -73 -158q0 -71 42 -138q46 -78 111 -78t115 75q43 67 43 136q0 97 -76 155z" />
    <glyph glyph-name="glDJERVI" unicode="&#x2c0c;" horiz-adv-x="583" 
d="M481 369q-20 0 -41 25q-21 24 -34 24q-20 0 -29 -26q1 -68 29 -164l23.5 -81t24.5 -80q6 -24 9.5 -40.5t3.5 -25.5q0 -7 -11 -7h-60q-7 0 -10 1q-6 56 -10.5 91.5t-6.5 49.5q-21 111 -53 111t-50 -54q-8 -20 -11 -41t-3 -41q0 -17 11 -56q6 -18 8.5 -31.5t2.5 -23.5
l-17 -6h-49q-10 0 -11 45q-1 89 -32 210q-2 10 -4.5 19t-4.5 19q-9 25 -24 25q-45 0 -45 -100q0 -12 0.5 -30.5t1.5 -42.5q1 -25 1.5 -43t0.5 -31v-13.5t2 -19.5q1 -11 1.5 -19t0.5 -13q-10 -10 -46 -10q-18 0 -23 5.5t-5 21.5q0 27 8 86t24 152q33 189 52 226q7 14 17 19
q13 -17 23 -36q1 -2 11 -36l28 -100q30 -110 51 -110q13 0 36 51q19 45 32 84t20 74l22 165q24 116 87 116q17 0 37 -16q45 -31 73 -88q29 -60 29 -113q0 -43 -22 -81q-25 -41 -68 -41zM432 658q-23 0 -36 -46q-5 -17 -7.5 -33.5t-2.5 -32.5q0 -33 12 -60q16 -35 45 -35
q59 0 59 47q0 5 -1 13q-1 7 -2 16t-2 23q-2 21 -4.5 35t-5.5 22q-11 22 -39 43q-8 8 -16 8z" />
    <glyph glyph-name="glKAKO" unicode="&#x2c0d;" horiz-adv-x="389" 
d="M174 202q-25 0 -31 -82q-3 -50 0 -101q-13 -22 -44 -22q-51 0 -51 10v200q0 22 15 22h162q35 0 35 39v91q0 30 -25 37q-11 3 -49 3h-123l-5 9v269q0 6 33 6q58 0 58 -7v-208q0 -14 11 -30q11 -14 27 -13l136 4l15 -20v-168q0 -29 -11 -35z" />
    <glyph glyph-name="glLJUDIE" unicode="&#x2c0e;" horiz-adv-x="630" 
d="M454 -12q-56 0 -85 76q-21 55 -21 123v10.5t1 13.5t1 13.5v9.5q0 22 -13.5 37.5t-34.5 15.5q-16 0 -26.5 -12t-10.5 -28q0 -8 7 -35q11 -46 11 -97q0 -116 -116 -116q-58 0 -99 47q-37 44 -37 105q0 66 41 110q41 45 106 46q-66 94 -66 203q0 69 41 122q45 58 112 58
q81 0 126 -52q43 -51 43 -132q0 -24 -6 -70l-3.5 -40.5t-1.5 -29.5q0 -75 38 -75q5 0 13 4t14 4q56 0 92 -57q29 -48 29 -109q0 -63 -47 -104q-46 -41 -108 -41zM274 630q-51 0 -77 -41q-24 -36 -24 -89q0 -85 13 -121q22 -67 88 -67q95 0 95 143q0 78 -13 113
q-21 62 -82 62zM455 274q-39 0 -39 -57q0 -6 0.5 -14t1.5 -18q3 -27 3 -33q3 -44 9 -62q10 -37 40 -37q58 0 58 89q0 132 -73 132zM180 268q-63 0 -63 -134q0 -87 45 -87q60 0 60 119q0 102 -42 102z" />
    <glyph glyph-name="uni2C0F" unicode="&#x2c0f;" horiz-adv-x="899" 
d="M771 340q-49 0 -91 42t-43 92l1 2q-1 59 20 107v4q1 63 -88 63q-25 0 -43 -19q-18 -18 -18 -43v-156q11 -27 57 -107q90 0 141 -42q55 -45 55 -133q0 -51 -29 -98q-33 -53 -81 -53q-65 0 -114 48q-49 47 -51 113l1 2q2 67 53 148l-54 103q-8 12 -25 12q-18 0 -24 -11
l-56 -104q54 -80 54 -149q0 -65 -49 -114q-50 -48 -115 -48q-48 0 -81 53q-29 45 -29 98q0 88 55 133q49 42 140 42q11 17 25.5 44l32.5 63v156q0 28 -20 45t-48 17q-83 0 -81 -62v-5q20 -45 20 -108q0 -49 -43 -92q-42 -43 -91 -43q-55 0 -89 63q-29 52 -29 113
q0 165 155 165h545q156 0 156 -165q0 -60 -29 -113q-36 -63 -90 -63zM735 617q-31 0 -47 -42q-11 -33 -11 -69l-1 -3q3 -29 19 -61q20 -38 46 -38q36 0 57 26q20 25 20 61q0 47 -18 82q-21 44 -65 44zM598 285q-29 0 -45 -44q-13 -33 -13 -68t23 -66q25 -32 59 -32
q35 0 55 35q19 32 19 66q0 46 -26 77q-27 32 -72 32zM191 611q-41 0 -64 -44q-18 -36 -18 -82q0 -35 20 -60q23 -26 58 -26q27 0 47 38q17 30 17 63q0 37 -12 69q-17 42 -48 42zM328 285q-46 0 -73 -32q-26 -31 -26 -77q0 -34 19 -66q22 -35 56 -35t58 31q23 31 23 64
q0 35 -12 70q-17 45 -45 45z" />
    <glyph glyph-name="glNASHI" unicode="&#x2c10;" horiz-adv-x="589" 
d="M115 -80v-12t1 -15l2 -26q-9 -5 -48 -5q-34 0 -43 3v134q0 27 25 27q10 0 24 -0.5t33 -0.5q19 -1 33 -1h24q66 0 66 51v198q0 21 -19 24q-2 1 -35 1q-45 0 -45 -27v-91q0 -10 -48 -10q-41 0 -41 5v134q0 28 19 28h124q45 0 45 60v247q0 12 7.5 22.5t19.5 10.5h135
q82 0 132 -47q52 -46 52 -127q0 -65 -35 -115q-38 -55 -102 -55q-62 0 -87 -7q-50 -14 -50 -59v-243q0 -24 -22 -24h-129q-38 0 -38 -80zM399 617q-44 0 -71 -36q-24 -33 -24 -79q0 -51 27 -87q31 -40 80 -40q43 0 64 39q17 31 17 76q0 127 -93 127z" />
    <glyph glyph-name="glONU" unicode="&#x2c11;" horiz-adv-x="407" 
d="M171 -4q-62 0 -99 34q-39 34 -39 96q0 65 27 106q30 49 92 49q16 0 48 -12q16 -5 27.5 -8t20.5 -3q22 0 44 34q17 32 17 57q0 26 -15 53q-19 31 -42 31q-15 0 -43 -12q-28 -11 -42 -11q-53 0 -91 37t-38 90q0 58 39 103q40 47 97 47q218 0 218 -354q0 -124 -49 -218
q-60 -119 -172 -119zM196 641q-38 0 -64 -35q-22 -31 -22 -71q0 -37 31 -59q28 -21 66 -21q77 0 77 82q0 104 -88 104zM207 239q-104 0 -104 -90q0 -42 29 -69q30 -27 72 -27q33 0 51 31q16 28 16 63v20q0 38 -12 55q-14 17 -52 17z" />
    <glyph glyph-name="glPOKOJI" unicode="&#x2c12;" horiz-adv-x="510" 
d="M383 317q-25 0 -50 27q-53 59 -53 172q0 120 -47 120q-17 0 -40 -28q-21 -27 -21 -46v-553q0 -16 -37 -16q-48 0 -48 17v249q0 50 -39 50q-5 0 -8 -1h-8q-37 0 -37 45q0 16 5 26q1 4 26 6q28 3 40 9q21 12 21 41v201q0 40 26 40h307q80 0 80 -104q0 -80 -24 -153
q-32 -102 -93 -102zM374 634q-32 0 -48 -37q-13 -31 -13 -65q0 -37 18 -83q23 -56 51 -56q31 0 49 54q6 20 9.5 40.5t3.5 40.5q0 106 -70 106z" />
    <glyph glyph-name="glRITSI" unicode="&#x2c13;" horiz-adv-x="393" 
d="M85 -1q-22 0 -22 22v652q0 11 47 11q44 0 44 -37q0 -6 -0.5 -15.5t-1.5 -21.5q0 -12 -0.5 -20.5t-0.5 -15.5v-143q0 -31 36 -41q11 -4 29 -5.5t45 -3.5q47 -2 60 -8q57 -33 57 -183q0 -191 -140 -191h-153zM217 344q-33 0 -48 -9q-18 -12 -18 -45v-195q0 -63 63 -63
t85 56q14 36 14 110q0 69 -14 100q-21 46 -82 46z" />
    <glyph glyph-name="glSLOVO" unicode="&#x2c14;" horiz-adv-x="543" 
d="M385 237q0 -29 68 -119q68 -92 68 -116q0 -5 -18 -5h-453q-27 0 -27 23q0 8 6 19q2 2 14 18l36 47l40.5 55.5l53.5 75.5l-14 37q-7 15 -28 32q-55 43 -69 70q-20 31 -20 96q0 91 75 156q74 62 165 62q99 0 169 -64q71 -65 71 -164q0 -62 -35 -104q-5 -5 -21.5 -19.5
l-45.5 -39.5q-35 -29 -35 -60zM283 647q-80 0 -122 -55q-40 -50 -40 -132q0 -39 23 -87q27 -54 64 -54q44 0 82 53q41 -51 85 -65q68 33 68 133q0 85 -37 141q-44 66 -123 66zM277 232q-31 0 -77 -61q-46 -59 -46 -91q0 -52 42 -52h155q43 0 43 43q0 17 -25 65l-20.5 36
t-18.5 27q-26 33 -53 33z" />
    <glyph glyph-name="glTVRIDO" unicode="&#x2c15;" horiz-adv-x="761" 
d="M593 362q-54 0 -90 42q-33 40 -33 95q0 21 13 54q14 34 14 54q0 42 -60 42q-4 0 -10 -0.5t-14 -1.5q-8 0 -14 -0.5t-11 -0.5q-4 0 -10 0.5t-15 0.5q-8 1 -14 1.5t-11 0.5q-55 0 -55 -40q0 -18 14 -55t14 -55q0 -55 -33 -95q-35 -42 -89 -42q-65 0 -108 45q-45 45 -45 109
q0 97 43 133q39 33 138 33h347q99 0 138 -33q43 -36 43 -133q0 -63 -45 -108q-45 -46 -107 -46zM602 639q-71 0 -71 -116q0 -41 16 -72q19 -40 56 -40q36 0 57 37q16 32 16 71q0 120 -74 120zM179 639q-75 0 -75 -120q0 -40 17 -71q19 -37 56 -37t56 40q16 29 16 72
q0 116 -70 116z" />
    <glyph glyph-name="glUKU" unicode="&#x2c16;" horiz-adv-x="736" 
d="M635 202q0 -75 -39 -136q-45 -69 -115 -69q-27 0 -71 25q-43 26 -73 26q-31 0 -77 -26q-48 -26 -76 -26q-59 0 -102 36q-48 39 -48 94q0 157 178 157q4 0 10.5 -1t9.5 -1q25 0 39 24q13 19 13 47q0 67 -54 67q-12 0 -36 -6l-21.5 -3.5t-15.5 -1.5q-65 0 -101 42
q-33 40 -33 106q0 62 50 98q45 33 109 33q22 0 44.5 -3t45.5 -11q40 -40 71 -40q24 0 72 27t76 27q75 0 109 -74q25 -54 25 -141q0 -72 39 -87l44 -4q28 -4 28 -27q0 -19 -21 -25q-41 -13 -42 -14q-25 -13 -34 -47q-4 -13 -4 -66zM438 629q-39 0 -64 -22q-26 -23 -26 -62
q0 -36 25 -60q23 -23 59 -29h1q49 0 79 25.5t30 73.5q0 74 -104 74zM525 443q-7 0 -26 -10q-20 -10 -65 -13q-44 -1 -60 -11q-26 -14 -26 -60q0 -43 67 -62q22 -6 48 -9.5t56 -3.5q43 0 43 117q0 19 -9 34q-11 18 -28 18zM181 650q-88 0 -88 -110q0 -101 103 -101
q41 0 68 33q25 31 25 73q0 48 -31 76q-29 29 -77 29zM444 256q-44 0 -70 -29q-26 -27 -26 -74q0 -41 33 -72q34 -33 75 -33q38 0 64 39q21 33 21 75q0 94 -97 94zM206 263q-95 0 -95 -100q0 -44 27 -78q29 -38 70 -38q34 0 62 36q26 35 26 70q0 43 -23 75q-26 35 -67 35z
" />
    <glyph glyph-name="glFRITU" unicode="&#x2c17;" horiz-adv-x="629" 
d="M559 173q-8 0 -21 18q-39 51 -39 161q0 33 -38 33q-26 0 -26 -18v-346q0 -21 -15 -21h-207q-15 0 -15 21v346q0 18 -25 18q-27 0 -49 -106t-50 -106q-22 0 -38 57q-15 48 -15 77q0 50 11 72q16 30 65 30h17t23 -1q14 -1 23.5 -1h16.5q24 0 24 61v35.5t-1 49.5
q-1 29 -1.5 50.5t-0.5 35.5q0 43 22 43h195q20 0 20 -43v-35.5t-1 -50.5q0 -29 -0.5 -51t-0.5 -36q0 -29 5 -42q7 -19 35 -19h12t17 1q11 1 18.5 1.5t12.5 0.5q53 0 73 -20q21 -18 21 -73q0 -27 -21 -81q-24 -61 -47 -61zM557 376q-33 0 -33 -42q0 -21 8 -42q12 -26 30 -26
q29 0 29 52q0 58 -34 58zM368 619q0 31 -23 31h-56q-22 0 -22 -31v-178q0 -34 25 -34h49q27 0 27 34v178zM293 376q-23 0 -23 -33l-3 -260q-2 -36 30 -36h40q31 0 31 36l1 260q0 33 -27 33h-49zM77 373q-33 0 -33 -59q0 -51 29 -51q19 0 29 26q3 9 5 19.5t2 22.5
q0 42 -32 42z" />
    <glyph glyph-name="glHA" unicode="&#x2c18;" horiz-adv-x="590" 
d="M415 -1q-40 0 -64 40q-20 35 -20 77q0 6 1 15t3 21q2 13 3 22t1 15q0 63 -45 63q-41 0 -96 -65l-88 -121q-48 -65 -72 -67q0 17 9 40l18 36q29 67 29 275q0 46 -1.5 83.5t-5.5 66.5q-1 6 -3.5 25t-7.5 50q-5 23 -6.5 42.5t-1.5 34.5q0 32 66 32q34 0 49 -6q22 -11 22 -41
v-5.5t-1 -7.5q-5 -45 -10.5 -89.5t-10.5 -89.5q-12 -107 -12 -180l9 11q12 -24 39 -24q19 0 102 50t123 50q67 0 103 -43q35 -41 35 -108q0 -76 -44 -137q-48 -65 -123 -65zM447 300q-38 0 -61 -44q-17 -36 -17 -78q0 -44 20 -75q23 -40 62 -40q43 0 66 43q16 35 16 83
q0 39 -22 74q-24 37 -64 37z" />
    <glyph glyph-name="glOTU" unicode="&#x2c19;" horiz-adv-x="692" 
d="M411 2q0 -27 18 -43q8 -7 32 -18q18 -6 18 -12q0 -11 -9 -19t-20 -8q-29 0 -62 14q-36 15 -49 40q-4 5 -6.5 13t-5.5 19q-6 26 -9 34q-9 28 -60 34q-64 6 -85 18q-63 37 -97 116q-32 72 -32 150q0 153 80 245q84 98 235 98q130 0 223 -93q93 -92 93 -221q0 -110 -44 -187
q-49 -87 -149 -117q-40 -11 -49 -18q-22 -13 -22 -45zM360 606q-52 0 -52 -85q0 -75 52 -75q26 0 40 26q12 21 12 49q0 85 -52 85zM473 624q-30 0 -36 -55q-4 -28 -7.5 -55t-7.5 -55q-15 -66 -63 -84q-38 13 -61 51q-22 38 -22 78q0 7 1 16.5t3 22.5q2 14 3.5 23.5t1.5 16.5
q0 59 -38 59q-26 0 -48 -37q-53 -83 -53 -264q0 -44 5.5 -83.5t16.5 -74.5q31 -103 99 -103q33 0 53 26q19 23 19 58q0 37 -20 46q-13 5 -25 9t-25 9q9 21 31 21q63 0 87 -43q4 -8 24 -79q10 -43 42 -43q25 0 54 32q62 74 62 224q0 166 -49 246q-23 38 -47 38z" />
    <glyph glyph-name="glPE" unicode="&#x2c1a;" horiz-adv-x="666" 
d="M594 0q-43 0 -43 25v593q0 31 -20 31h-136q-32 0 -32 -63v-561q0 -21 -47 -23q-59 -3 -116 -3q-71 0 -106 39.5t-35 108.5q0 141 114 141h16t21 -1h37q5 0 18 5q11 5 11 12v349q0 8 16 27h329q18 0 18 -35v-620q0 -25 -45 -25zM276 211q0 36 -51 36q-47 0 -63 -27
q-12 -20 -12 -67q0 -25 3.5 -47t11.5 -33q18 -27 64 -27q47 0 47 29v136z" />
    <glyph glyph-name="glSHTA" unicode="&#x2c1b;" horiz-adv-x="638" 
d="M441 356q53 -71 59 -85q17 -36 17 -103q0 -76 -59 -125q-57 -46 -133 -46q-40 0 -73.5 11.5t-62.5 34.5q-60 51 -60 126q0 70 16 102q5 12 19.5 32.5t40.5 51.5q0 38 -54 47l-83 4q-23 3 -23 11v249q0 13 41 13t41 -12v-210q0 -33 71 -33q22 0 49 10q35 12 35 27v208
q0 11 40 11q44 0 44 -12v-208q0 -17 33 -27q26 -10 47 -10q74 0 74 34v210q0 11 38 11q43 0 43 -14v-247q-6 -5 -92 -20q-68 -10 -68 -41zM323 362q-103 0 -103 -176q0 -58 24 -94q27 -44 82 -44q101 0 101 137q0 177 -104 177z" />
    <glyph glyph-name="glTSI" unicode="&#x2c1c;" horiz-adv-x="604" 
d="M356 -8q-45 0 -73 72q-13 34 -28 112q-4 23 -9.5 58l-13.5 82q-2 18 -9 54q-14 32 -46 32q-5 0 -12 -2l-17 -5q-17 -7 -28 -7q-39 0 -66 57q-24 49 -24 93q0 75 30 110q31 36 107 36q92 0 112 -39q10 -17 10 -68q0 -310 65 -411q21 -33 43 -33q33 0 63 145q11 52 17 97.5
t9 84.5q1 13 1.5 33.5t1 45t0.5 51.5v53q0 43 29 43q71 0 71 -37q0 -19 -6 -54.5t-17.5 -83.5t-29.5 -108t-42 -129q-98 -282 -138 -282zM153 659q-37 0 -58 -51q-16 -38 -16 -83q0 -34 19 -63q21 -34 52 -34q33 0 53 35q14 28 14 66q0 43 -12 79q-18 51 -52 51z" />
    <glyph glyph-name="glCHRIVI" unicode="&#x2c1d;" horiz-adv-x="622" 
d="M585 278h-15.5t-22.5 1q-12 1 -21.5 1.5t-15.5 0.5q-89 0 -89 -63q0 -15 9 -45q5 -15 6.5 -26t1.5 -19q0 -48 -30 -87q-33 -41 -81 -41q-53 0 -86 44q-31 42 -31 95q0 23 21 62q21 40 21 51q0 29 -69 29h-21t-30 -2q-17 -1 -29.5 -1.5t-20.5 -0.5q-44 0 -44 16
q0 15 28 58q18 26 33 63t29 85q18 65 30 103t17 51q15 37 46 37q62 0 62 -34q0 -23 -22 -67q-23 -44 -23 -62q0 -27 50 -27h106q35 0 35 31q0 21 -12 60q-12 40 -12 61q0 37 73 37q19 0 27 -5q15 -11 15 -41q0 -84 16 -157t48 -139q25 -50 25 -59q0 -10 -24 -10zM406 478
q-27 0 -37 -12q-9 -9 -17 -36q-16 -47 -28 -109l127 5q22 2 22 27q0 8 -2.5 22.5t-7.5 35.5q-11 46 -18 54q-12 13 -29 13h-10zM279 471q-30 0 -60 14q-6 -16 -12.5 -31l-13.5 -31q-17 -45 -17 -60q0 -37 35 -37h69q16 0 34 58q18 52 18 74q0 16 -26 16q-5 0 -13.5 -1
t-12.5 -1zM325 279q-35 0 -57 -43q-19 -35 -19 -72q0 -88 72 -88q32 0 52 39q14 31 14 68q0 32 -15 61q-18 35 -47 35z" />
    <glyph glyph-name="glSHA" unicode="&#x2c1e;" horiz-adv-x="710" 
d="M85 -1q-18 0 -18 26l1 638q2 0 14 10q8 11 33 11q24 0 31 -10q8 -11 11 -11l-2 -581q0 -52 41 -52h82q20 0 35 16q16 17 16 39l-2 578q1 0 14 10q12 11 34 11q21 0 29 -11q10 -12 15 -15l-1 -575q0 -22 15 -38q14 -17 35 -17h82q18 0 30 18q11 17 11 35l-2 582q6 0 15 11
q9 10 28 10q22 0 32 -11q12 -10 14 -10l1 -641q0 -23 -16 -23h-578z" />
    <glyph glyph-name="glYOR" unicode="&#x2c1f;" horiz-adv-x="582" 
d="M392 -11q-61 0 -103 45q-41 46 -41 108q0 81 61 111q9 5 36.5 11t75.5 14q60 10 60 46q0 35 -173 35q-125 0 -125 -71q0 -2 0.5 -6.5t0.5 -6.5q0 -32 -27 -63q-29 -32 -60 -32q-28 0 -52 42q-20 37 -20 68q0 36 22 64q22 26 58 26q29 0 72 1t100 3q58 2 100.5 3t71.5 1
q38 0 38 30q0 14 -18 25q-19 11 -32 11q-18 0 -47 -7t-48 -7q-47 0 -78 24q-36 25 -36 71q0 61 36 105q38 46 98 46q97 0 135 -42q68 -76 68 -314q0 -341 -173 -341zM385 648q-28 0 -47 -36q-15 -29 -15 -61q0 -26 18 -48q18 -21 43 -21q61 0 61 78q0 31 -14 57
q-16 31 -46 31zM413 232q-29 0 -47 -29q-8 -13 -11.5 -27t-3.5 -29q0 -30 14 -51q17 -25 45 -25q29 0 46 33q12 27 12 60q0 68 -55 68zM109 333q-18 0 -26 -17q-8 -14 -8 -32q0 -15 8 -29q9 -15 25 -15q35 0 35 48q0 16 -8 30q-11 15 -26 15z" />
    <glyph glyph-name="glYER" unicode="&#x2c20;" horiz-adv-x="558" 
d="M372 -8q-68 0 -116 48t-48 117q0 86 66 112q23 8 122 12q65 3 65 40q0 13 -23 20q-17 6 -33 6l-206 -3q-14 -2 -25 -17q-11 -16 -16 -70q-3 -46 -38 -71q-11 -8 -23 -8q-73 0 -73 135q0 36 16 48q13 12 49 13q30 2 107.5 3t203.5 1q61 0 61 24q0 38 -52 38q-8 0 -18.5 -2
t-24.5 -5t-24.5 -5t-18.5 -2q-118 0 -118 99q0 65 44 113q45 50 108 50q103 0 148 -120q34 -88 34 -207q0 -134 -26 -226q-41 -143 -141 -143zM372 625q-27 0 -45 -25q-17 -23 -17 -51q0 -32 24 -50q23 -17 56 -17q41 0 41 58q0 29 -14 55q-18 30 -45 30zM386 239
q-72 0 -72 -55q0 -32 16 -63q16 -39 44 -39q29 0 47 38q14 31 14 64q0 55 -49 55z" />
    <glyph glyph-name="glYATI" unicode="&#x2c21;" horiz-adv-x="635" 
d="M70 0q-28 0 -29 17l102 270l147 378q7 7 15 18q5 4 24 4q21 0 28 -4l11.5 -8t10.5 -9l246 -627q6 -5 6 -12q0 -28 -41 -28zM334 544q-22 0 -29 -20l-55 -153q-5 -20 -5 -34q0 -33 26 -33h127q29 0 29 35q0 12 -14 51l-49 134q-7 20 -30 20zM436 259q-43 0 -58 -20
q-12 -15 -12 -49v-23q1 -8 1 -14v-10v-10t-1 -13t-1.5 -13t-0.5 -9q0 -48 53 -48h55q40 0 40 25q0 41 -21 106q-26 78 -55 78zM303 212q0 19 -13 32t-33 13h-18q-25 0 -54 -74q-14 -34 -20 -59t-6 -41q0 -38 53 -38q51 0 63 3q28 10 28 49v115z" />
    <glyph glyph-name="glSPIDERHA" unicode="&#x2c22;" horiz-adv-x="794" 
d="M706 388q-12 0 -12 22q0 14 16 46q18 35 19 47q-10 26 -39 34q-17 5 -53 5q-22 0 -32 -5q-11 -6 -21 -25q-11 -25 -11 -54q0 -25 9 -61l18 -59l5 -42t8 -59q1 -14 15 -69q11 -44 11 -69q0 -32 -13 -61q-17 -36 -45 -36q-15 0 -32 11q-19 13 -19 27q0 12 17 46
q16 32 16 53t-18 36t-40 15q-23 0 -56 -12l-54 -19q-33 -10 -69.5 -15.5t-74.5 -7.5q-67 -83 -91 -104q-53 -46 -127 -46l-14 1l88 80q51 49 67 97q-62 57 -62 158q0 63 10 116l-11 -1q-37 0 -49 13q10 20 48 55q1 177 105 177q45 0 45 -49q0 -25 -16 -65l-17.5 -43
l-8.5 -21l127 2q77 3 126 16q23 29 66 35q5 1 24 1h52q12 0 22 1t18 3h10q45 0 81 -24q41 -27 41 -71q0 -79 -79 -79zM470 486q-136 0 -274 -45q-7 -31 -7 -63v-30q0 -60 39 -100q37 -40 98 -40q68 0 128 23q78 30 78 88q0 24 -31 77t-31 90z" />
    <glyph glyph-name="glYU" unicode="&#x2c23;" horiz-adv-x="592" 
d="M463 382q-12 0 -30 14q-20 14 -27 14q-29 0 -29 -83q0 -146 -99 -333q-82 -156 -202 -290q-16 -17 -24 -17q-14 0 -14 28q0 18 16 62q53 148 53 343v443q0 16 -20 39q-20 25 -20 35q0 47 54 47l325 -1q86 0 110 -36q18 -27 18 -117q0 -59 -27 -99q-30 -49 -84 -49z
M432 647q-29 0 -44 -31q-12 -26 -12 -57q0 -120 74 -120q42 0 42 92q0 116 -60 116zM288 606q0 37 -60 37q-58 0 -58 -36v-611q0 -6 -2 -16t-2 -15q0 -18 20 -18q16 0 55 86q23 52 35 102.5t12 101.5v369z" />
    <glyph glyph-name="glYUS" unicode="&#x2c24;" horiz-adv-x="634" 
d="M424 -8q-103 0 -164 102q-46 76 -61 196q-35 -48 -68 -48q-49 0 -75 50q-23 43 -23 94q0 44 31 79q29 35 75 35q39 0 63 -51q22 99 77 166q66 78 158 78q67 0 117 -41q48 -40 70 -103q4 -9 4 -19q0 -23 -14.5 -38.5t-37.5 -15.5q-26 0 -41 45q-8 21 -14.5 42.5
t-14.5 41.5q-23 45 -65 45q-78 0 -112 -106q-23 -71 -23 -171l217 1q7 0 7 -27q0 -24 -8 -24h-212q0 -11 -0.5 -21t-0.5 -19q0 -79 24 -143q31 -90 97 -90q39 0 67 37q8 12 17.5 29.5t19.5 42.5q16 42 25 45q18 8 45 8q30 0 30 -41q0 -5 -1 -10.5t-4 -13.5q-23 -67 -78 -110
q-59 -45 -127 -45zM145 435q-24 0 -40 -21q-13 -20 -13 -44q0 -25 13 -44q16 -21 40 -21q23 0 38 21q14 20 14 44q0 22 -14 44q-15 21 -38 21z" />
    <glyph glyph-name="glYUSTAIL" unicode="&#x2c25;" horiz-adv-x="717" 
d="M513 -14q-165 0 -210 291q-38 -39 -61 -39q-26 0 -55 47q-29 48 -57 48q-21 0 -33 -21q-14 -25 -24 -32q-2 -14 -3.5 -28t-1.5 -28q0 -44 21 -74l50 -58q-7 -20 -55 -86q-16 1 -34 79q-14 68 -14 98q0 43 18 94q20 59 49 78l20 14.5l27 19.5l24.5 53t10.5 21q25 39 65 39
q28 0 59 -35q25 92 73 152q60 74 143 74q65 0 121 -50q58 -52 58 -115q0 -23 -13 -39q-14 -18 -37 -18q-21 0 -36 45l-30 84q-23 45 -58 45q-120 0 -123 -270l199 1q10 0 10 -36q0 -23 -12 -23h-192q-2 -26 -2 -41.5v-22.5q0 -68 23 -124q32 -74 87 -74q42 0 65 41l34 77
q21 42 60 42q32 0 32 -44q0 -65 -66 -125t-132 -60zM261 435q-23 0 -35 -21q-13 -17 -13 -41t13 -41q11 -20 35 -20q23 0 34 21q12 18 12 40q0 21 -12 41q-12 21 -34 21z" />
    <glyph glyph-name="glYO" unicode="&#x2c26;" horiz-adv-x="515" 
d="M273 295q-5 -7 -5 -15q0 -29 23 -29q45 0 71 -49q20 -42 20 -91q0 -50 -35 -85q-36 -36 -85 -36q-46 0 -75 41q-26 38 -26 85q0 32 22 82q22 51 22 78q0 19 -16 19h-130q-32 0 -32 35q0 18 10 35l147 297q12 25 62 25q42 0 57 -22l199 -306q10 -14 10 -29q0 -35 -33 -35
h-206zM329 482q-11 0 -31 -49q-19 -49 -19 -63q0 -24 21 -24h66q14 0 24 7q13 7 13 19q0 24 -50 97q-9 13 -24 13zM227 601q-13 0 -56 -99q-43 -100 -43 -122q0 -33 31 -33h31q14 0 51 85q37 81 37 104q0 13 -19 40q-18 25 -32 25zM254 214q-21 0 -33 -28q-9 -23 -9 -46
q0 -12 1.5 -23.5t6.5 -22.5q10 -28 31 -28q25 0 40 28q12 22 12 50q0 24 -12 45q-13 25 -37 25z" />
    <glyph glyph-name="glIOTYUS" unicode="&#x2c27;" horiz-adv-x="873" 
d="M702 -2q-54 0 -98 37q-39 31 -61 82q-14 32 -24 80q-8 37 -14 44q-4 2 -8 5t-10 5l-31 -9q-18 8 -31 8q-21 0 -35 -46q-4 -16 -7.5 -32t-7.5 -32q-15 -60 -61 -102q-43 -40 -92 -40q-71 0 -122 63q-48 58 -48 130q0 54 45 54q35 0 53 -45q6 -22 12.5 -43l13.5 -42
q18 -46 57 -46q33 0 59 44q23 36 23 74q0 11 -3.5 24.5t-11.5 30.5q-16 40 -34 40h-56q0 2 -1 3q0 2 0.5 4t0.5 4l47 7h-1q28 3 41.5 19.5t13.5 36.5q0 26 -15 35q-7 4 -38 9q-10 2 -19 3t-17 2q-13 2 -13 5q0 18 10 18q5 0 19 -3q6 -1 10.5 -1.5t7.5 -0.5q25 0 45 25
q19 25 19 49q0 126 -88 126q-38 0 -57 -39q-7 -18 -13.5 -36.5t-13.5 -36.5q-18 -39 -54 -39q-40 0 -40 32q0 69 52 122q52 55 120 55q85 0 124 -48q8 -11 36 -100q25 -80 39 -80q12 0 29 7q13 -7 25 -7q19 0 42 59q30 79 54 110q46 59 129 59q63 0 108 -44q42 -41 60 -103
l3.5 -17t1.5 -13q0 -32 -41 -32t-60 39l-12 36.5l-12 36.5q-17 39 -56 39q-44 0 -78 -59q-29 -52 -29 -100q0 -58 31 -79q22 -15 75 -15h28q10 1 17 1h12t5 -18q0 -15 -1.5 -28t-5.5 -13h-12.5t-17.5 1q-11 0 -18.5 0.5t-13.5 0.5q-51 0 -71 -19q-24 -20 -24 -70t26 -97
q30 -54 77 -54q36 0 55 31q10 16 24 61q11 35 20 41q8 3 17.5 5t23.5 2q41 0 41 -35q0 -7 -5 -27q-19 -65 -60 -107q-49 -47 -110 -47zM396 346q0 -10 3.5 -24.5t11.5 -22.5q15 -17 36 -17q26 0 53 16q14 9 20.5 25t6.5 30q0 28 -21 46q-19 19 -48 19q-62 0 -62 -72z" />
    <glyph glyph-name="glBYUS" unicode="&#x2c28;" horiz-adv-x="813" 
d="M623 -4q-52 0 -101 42q-49 43 -58 94l-6 72q-6 57 -22 57h-5q-2 1 -5 1q-7 0 -21 -8q-14 -6 -21 -6q-10 0 -26 9q-16 11 -25 11q-8 0 -10 -2q-16 -6 -22 -31q-4 -20 -7.5 -41t-5.5 -42q-7 -53 -17 -76q-14 -33 -53 -56q-37 -22 -74 -22q-56 0 -93 64q-30 54 -30 116
q0 123 126 123q10 0 27 -9q16 -10 26 -10q22 0 45 27q11 14 17 30.5t6 27.5q0 23 -22 51q-24 28 -45 28q-13 0 -36 -14q-24 -15 -37 -15q-43 0 -74 48q-28 43 -28 89q0 57 37 92q39 34 96 34q63 0 103 -52q34 -43 42 -110q1 -17 9 -44q9 -11 24 -11q15 19 44 19q31 0 44 -22
q17 0 38 57q14 38 27 64.5t24 41.5q42 57 112 57q54 0 108 -36q60 -41 60 -92q0 -81 -53 -81q-32 0 -42 44q-5 21 -9 41.5t-9 41.5q-17 44 -58 44q-52 0 -79 -71q-20 -52 -20 -114q0 -31 7 -41q6 -12 33 -30q28 -17 49 -17h95q5 0 5 -12q0 -15 -1.5 -27t-3.5 -12h-36
q-11 1 -20 1h-15q-62 0 -85 -24q-24 -24 -24 -85q0 -32 7 -49q4 -15 25 -44q31 -49 69 -49q37 0 57 35q5 17 11 32.5l12 31.5q17 35 48 35q46 0 46 -39q0 -4 -1 -9.5t-3 -12.5q-17 -64 -64 -102q-47 -43 -112 -43zM382 436q-49 0 -49 -70q0 -31 12.5 -51.5t38.5 -20.5
q21 0 35 21q5 8 8 23.5t3 27.5q0 24 -12 45q-14 25 -36 25zM152 621q-27 0 -45 -24q-15 -21 -15 -51q0 -29 14 -51q18 -24 46 -24q23 0 44 23q22 22 22 46q0 81 -66 81zM157 254q-30 0 -47 -35q-14 -30 -14 -61q0 -25 14 -53q17 -32 41 -32q29 0 46 32q15 25 15 58
q0 13 -3.5 27t-11.5 29q-16 35 -40 35z" />
    <glyph glyph-name="glIOTBYUS" unicode="&#x2c29;" horiz-adv-x="952" 
d="M775 -4q-55 0 -86 11q-41 17 -62 60q-7 15 -23 102q-15 79 -27 88l-19.5 -11t-24.5 -12q-7 1 -18.5 2.5t-37.5 13.5q-22 11 -38 11q-17 0 -17 -46q0 -15 3 -43q3 -29 3 -43q0 -54 -36 -93q-36 -38 -91 -38q-48 0 -78 40q-26 37 -26 87q0 17 11 53t11 53q0 35 -50 35
q-17 0 -51 -3q-35 -3 -52 -3q-24 0 -24 17q0 16 14 44l167 358h107l99 -232q7 -16 22 -16q13 0 40 11q25 12 39 12q9 0 27 -9q16 -9 20 -9q13 0 24 51l10 66q17 58 66 92q48 33 109 33q65 0 107 -50q39 -47 39 -113q0 -47 -41 -47q-23 0 -37 8q-8 4 -18 42q-5 23 -11 38.5
t-12 26.5q-20 33 -54 33q-49 0 -73 -59q-19 -44 -19 -101q0 -84 77 -84h96q6 0 6 -20q0 -34 -8 -34h-89q-30 0 -56 -35q-24 -33 -24 -65q0 -55 18 -91q24 -48 72 -48q36 0 52 37l12 34t11 34q17 37 51 37q50 0 50 -44q0 -61 -48 -121q-50 -60 -112 -60zM519 410
q-27 0 -42 -24q-13 -19 -13 -48q0 -21 17 -40q19 -17 40 -17t36 17q12 16 12 39q0 27 -12 48q-13 25 -38 25zM357 438q-19 0 -35 -39q-12 -32 -12 -56q0 -41 47 -41q18 0 30 11.5t12 29.5q0 28 -8 57q-11 38 -34 38zM269 607q-7 0 -18 -8q-10 -10 -65 -136
q-57 -128 -57 -139q0 -21 26 -21h55q35 0 51 58q25 85 72 142l-37 85q-9 19 -27 19zM324 244q-48 0 -48 -81q0 -82 44 -82q26 0 39 28q12 24 12 51q0 28 -9 52q-14 32 -38 32z" />
    <glyph glyph-name="glFITA" unicode="&#x2c2a;" horiz-adv-x="679" 
d="M633 249q-28 0 -38 29l-11 55q-6 29 -31 29q-21 0 -31 -30q-3 -12 -9 -47q-17 -98 -48 -174q-49 -115 -115 -115q-62 0 -110 118q-31 73 -50 172q-15 76 -40 76q-22 0 -35 -41q-2 -6 -13 -61q-13 -10 -32 -10q-32 0 -43 28q-6 15 -6 55q0 42 11 56q9 12 35 12h7t13 -1h24
q58 0 91 74l26 68.5l26 68.5q36 74 98 74q55 0 86 -55q8 -13 19 -41t26 -73q25 -71 51 -96q20 -17 50 -20q-12 1 2 1.5t55 0.5t41 -64q0 -23 -1 -37.5t-4 -21.5q-9 -30 -44 -30zM352 631q-39 0 -60 -77q-14 -56 -14 -110q0 -42 44 -42h63q41 0 41 37q0 4 -0.5 9t-1.5 12
q-3 15 -3 22q0 42 -15 89q-21 60 -54 60zM284 346q-6 -26 -6 -41q0 -69 12 -123q18 -87 62 -87q35 0 53 53q7 20 11 46.5t6 61.5l3 88z" />
    <glyph glyph-name="glIZHITSA" unicode="&#x2c2b;" horiz-adv-x="543" 
d="M478 112q-18 0 -36 12l-3.5 26.5t-3.5 19.5q-2 9 -3 16q-11 33 -48 33q-39 0 -39 -43q0 -22 15 -35q7 -20 7 -42q0 -49 -44 -78q-38 -25 -91 -25q-59 0 -104 19q-62 26 -62 74q0 17 17 46q18 28 18 45q0 25 -32 52q-32 26 -32 77q0 53 23 79q37 14 37 44q0 22 -20 42
q-13 23 -13 42q0 52 41 85q37 31 91 31q66 0 112 -20q60 -27 60 -85q0 -19 -29 -77q-1 -20 36 -42q36 -21 36 -61q0 -33 -14 -55v-15q0 -23 36 -35l67 -21q36 -18 38 -61q-18 -48 -60 -48zM221 598q-73 0 -73 -94q0 -72 64 -72q36 0 60 21q26 20 26 56q0 34 -22 60
q-23 29 -55 29zM215 412q-41 0 -69 -33q-29 -32 -29 -74q0 -86 118 -86q83 0 83 91q0 45 -29 74q-28 28 -74 28zM215 193q-80 0 -80 -73q0 -31 26 -55q25 -24 58 -24q81 0 81 71q0 81 -85 81z" />
    <glyph glyph-name="glSHTAPIC" unicode="&#x2c2c;" horiz-adv-x="224" 
d="M27 -9q-13 0 -10 13q7 9 22 40q40 84 57 165q3 18 5.5 45t4 57t2.5 60.5t1 56.5q0 43 -1.5 76t-3.5 58q-5 48 -8 69.5t-3 18.5q0 34 71 34q21 0 33 -88q3 -28 5 -56.5t2 -57.5q0 -57 -7.5 -117.5t-22 -118t-36.5 -109.5t-51 -93q-38 -53 -60 -53z" />
    <glyph glyph-name="glTROKUTA" unicode="&#x2c2d;" horiz-adv-x="639" 
d="M496 0l-2 272l-341 -218q-6 -5 -22.5 -17l-44.5 -33v661q17 -9 33.5 -19.5l33.5 -21.5l341 -232v263h93l1 -655h-92zM151 548v-185h271zM151 299v-171l266 171h-266z" />
    <glyph glyph-name="glLATINEM" unicode="&#x2c2e;" horiz-adv-x="620" 
d="M586 -1h-83l2 484q0 81 -50 81q-24 0 -57 -36t-33 -60l1 -469h-82l1 469q0 32 -11 62q-15 37 -44 37q-9 0 -21 -6q-42 -22 -55 -50q-13 -25 -13 -74l-1 -438h-84l2 427q0 52 16 74q8 11 57 50l68 51q44 29 77 29q43 0 88 -88l50 35.5t34 22.5q50 28 96 28q44 0 43 -86z
" />
    <glyph glyph-name="GLazu" unicode="&#x2c30;" horiz-adv-x="497" 
d="M434 86q-33 0 -38 8l-1 85q0 24 -34 24q-43 0 -43 -21l-1 -166q0 -12 -46 -12t-46 12l-1 160q-1 12 -10.5 22.5t-21.5 10.5q-37 0 -37 -27v-89q-10 -7 -50 -7q-33 0 -44 8v132q0 14 13 14h20.5t29.5 -1t29.5 -1.5t20.5 -0.5q51 0 51 35v178q0 9 18 18q17 7 27 7
q25 0 46 -26q1 -21 1.5 -36t0.5 -24t-0.5 -22.5t-1.5 -31.5q0 -18 -0.5 -31.5t-0.5 -22.5q0 -44 53 -44q7 0 18 0.5t26 0.5q15 1 26 1h19q25 0 25 -19v-127q-10 -7 -48 -7z" />
    <glyph glyph-name="GLbuky" unicode="&#x2c31;" horiz-adv-x="540" 
d="M108 1q-23 0 -31.5 9.5t-8.5 33.5v406q0 11 49 11q34 0 44 -8l-1 -120q0 -25 44 -25q49 0 51 21l1 126q0 7 31 7q47 0 47 -6l1 -123q1 -25 52 -25q13 0 29 11q15 12 15 26l-5 108q9 9 65 9q24 0 24 -6v-166q0 -24 -34 -24h-285q-35 0 -35 -36v-144q0 -39 54 -39
q120 0 185 15l23.5 6l23.5 6q25 7 47 7q24 0 24 -22q0 -33 -11 -46q-11 -12 -45 -12h-354z" />
    <glyph glyph-name="GLvede" unicode="&#x2c32;" horiz-adv-x="682" 
d="M588 228q-19 0 -46 9q-32 -6 -32 -43q0 -8 3 -24q3 -15 3 -23q0 -61 -41 -105q-41 -42 -103 -42q-167 0 -167 139q11 24 11 53q0 35 -35 41q-17 -4 -32 -4q-107 0 -107 132q0 48 52 77q43 24 96 24q136 0 136 -149q0 -54 -12 -100q-18 -68 -18 -80q0 -80 91 -80
q52 0 72 35q16 26 16 83q0 15 -20 75q-21 60 -21 98q0 56 31.5 87t88.5 31q130 0 130 -138q0 -42 -27 -69t-69 -27zM564 418q-31 0 -50 -22q-19 -20 -19 -53q0 -29 18 -53q18 -27 48 -27t48 25q16 22 16 54q0 29 -16 52q-18 24 -45 24zM178 425q-71 0 -71 -91q0 -65 67 -65
q29 0 48 20t19 49q0 87 -63 87z" />
    <glyph glyph-name="GLglagoli" unicode="&#x2c33;" horiz-adv-x="584" 
d="M233 17q-11 -11 -66 -11q-36 0 -36 16q0 15 38 77q39 61 39 92q0 33 -32 33q-7 0 -18 -4q-12 -4 -19 -4q-34 0 -61 35q-26 34 -26 68q0 47 26 90q27 42 70 55q30 8 92 8q44 0 70 -38q22 -35 22 -80q0 -30 -25 -91q-24 -59 -24 -90q0 -30 25 -31l53 31t32 17
q25 12 48.5 17.5t44.5 5.5q38 0 65 -28q28 -28 28 -65q0 -50 -19 -86q-26 -42 -72 -42q-94 0 -94 79q0 7 3 24q3 16 3 25q0 11 -2.5 15t-13.5 4h-8q-38 -17 -60.5 -28.5t-30.5 -16.5q-56 -37 -52 -77zM477 189q-25 0 -31 -19q-3 -10 -6 -19t-5 -19q-7 -14 -7 -22
q0 -72 49 -72q51 0 51 81q0 70 -51 70zM207 436q-32 0 -50 -40q-15 -33 -15 -68q0 -32 16 -52q19 -25 47 -25q29 0 49 47q17 39 17 72q0 25 -20 45q-20 21 -44 21z" />
    <glyph glyph-name="GLdobro" unicode="&#x2c34;" horiz-adv-x="677" 
d="M524 -1q-66 0 -103.5 37.5t-37.5 103.5q0 31 18 91t18 91q0 93 -79 93q-43 0 -71 -24q-31 -26 -31 -67q0 -19 7 -45t21 -61q28 -68 28 -107q0 -111 -128 -111q-55 0 -94 36q-38 36 -38 92q0 27 12 51q24 43 66 57l65 12q30 4 30 26q0 12 -7 30q-6 19 -6 30q0 66 50 99
q43 29 111 29q65 0 111 -32q51 -38 51 -100q0 -8 -3 -21q-3 -14 -3 -21q0 -31 42 -40q33 -7 52.5 -12.5t26.5 -8.5q42 -27 42 -96q0 -74 -39 -105q-35 -27 -111 -27zM528 210q-27 0 -48 -17q-23 -17 -23 -43q0 -106 73 -106q35 0 55 31q17 28 17 64q0 32 -21 51.5t-53 19.5z
M179 212q-28 0 -44 -25q-15 -24 -15 -52q0 -31 16 -56q19 -28 49 -28q63 0 63 83q0 78 -69 78z" />
    <glyph glyph-name="GLestu" unicode="&#x2c35;" horiz-adv-x="449" 
d="M441 229q0 -228 -194 -228q-69 0 -131 38q-69 43 -69 109q0 20 36 20q96 0 95 -31q0 -2 -1 -5.5t-1 -5.5q0 -30 22 -52q23 -23 52 -23q35 0 56 30q20 28 20 63q0 27 -28 27q-5 0 -10.5 -1t-13.5 -3t-14 -3t-10 -1q-41 0 -41 26q0 19 43 19q9 0 26 -3q16 -4 26 -4
q36 0 36 28q0 33 -34 33q-5 0 -12 -1.5l-17 -3.5q-10 -3 -17 -4t-12 -1q-39 0 -39 20q0 29 54 29q5 0 20 -5q11 -5 20 -5q25 0 39 27q0 35 -23 66q-24 31 -60 31q-30 0 -53 -20t-23 -52q0 -31 -90 -31q-41 0 -41 20q0 59 73 98q32 16 63 24t64 8q189 0 189 -233z" />
    <glyph glyph-name="GLzhivete" unicode="&#x2c36;" horiz-adv-x="681" 
d="M524 1q-49 0 -88 45q-37 43 -37 93q0 11 4 27q5 20 5 28q0 41 -41 41q-47 0 -47 -48q0 -9 5 -32q4 -19 4 -32q0 -57 -35 -90t-91 -33q-63 0 -104 38q-44 39 -44 101q0 47 48 79q44 29 93 29q6 0 23 -3q8 -1 13.5 -1.5t9.5 -0.5q74 0 74 43q0 36 -58 62q-48 21 -91 21
q-6 -5 -17 -5q-18 0 -18 12q0 27 32 57q31 30 58 30q38 0 83 -54q44 -53 58 -53q19 0 63 53q43 54 85 54q20 0 51 -29q28 -28 28 -50q0 -5 -2 -13q-13 -5 -32 -5q-14 0 -23 4q-36 -6 -71 -33q-39 -32 -39 -65q0 -27 55 -27q5 0 12 1t17 3t16.5 3t11.5 1q57 0 94 -32
q38 -33 38 -90q0 -55 -45 -92q-43 -37 -98 -37zM522 209q-27 0 -45 -19q-18 -18 -18 -46q0 -31 19 -53q19 -24 48 -24q25 0 44 17q19 18 19 43q0 32 -18 56q-17 26 -49 26zM203 198q-27 0 -46 -22q-18 -21 -18 -49t19 -47q19 -20 47 -20q27 0 43 22q17 22 17 47q0 29 -17 49
q-18 20 -45 20z" />
    <glyph glyph-name="GLdzelo" unicode="&#x2c37;" horiz-adv-x="525" 
d="M305 -13q-51 0 -64 15l-184 213q-10 11 -10 22q0 25 34 25h196l7 9q-2 20 -22 20q-39 0 -65 29q-25 30 -25 69t40 65q36 21 78 21q37 0 68 -26t31 -63q0 -22 -21 -62q-21 -39 -21 -50q0 -14 32 -14h17.5t24.5 2q14 1 25 1.5t18 0.5q54 0 54 -27q0 -13 -9 -26l-136 -208
q-10 -16 -68 -16zM301 434q-24 0 -43 -22q-18 -21 -18 -47q0 -24 18 -42t41 -18t36 22q13 19 13 42t-11 43q-14 22 -36 22zM362 204q-24 0 -48 -51q-22 -45 -22 -73q0 -10 12 -25q11 -15 22 -15q16 0 54 66q37 62 37 84q0 14 -26 14h-29zM198 215q-33 0 -33 -16
q0 -18 26 -47t43 -29q12 0 31 32q17 31 17 45q0 15 -20 15h-64z" />
    <glyph glyph-name="GLzemlya" unicode="&#x2c38;" horiz-adv-x="623" 
d="M331 379q19 0 40 35l26.5 42.5t14.5 20.5q30 34 73 34q6 0 17.5 -1t17.5 -1q5 0 15.5 1.5t16.5 1.5q57 0 57 -63q0 -49 -21 -101q-27 -64 -67 -64q-29 0 -59 63q-30 64 -37 64q-28 0 -82 -74q21 -99 21 -133q0 -114 -104 -195q-24 -18 -37 -18q-78 0 -129 105
q-42 87 -42 175q0 57 38 110q33 49 87 78q22 14 32 14q19 0 68 -37q47 -38 54 -57zM506 486q-45 0 -45 -53q0 -19 21 -52q22 -35 39 -35q28 0 28 67q0 73 -43 73zM188 396q-25 0 -43 -42q-17 -31 -17 -62q0 -25 8 -42q9 -27 27 -27q16 0 55 38q40 39 40 53q0 24 -22 54
q-23 28 -48 28zM274 253q-12 0 -57 -45q-44 -46 -44 -58q0 -23 25 -48q24 -24 50 -24q31 0 47 28q14 26 14 57q0 90 -35 90z" />
    <glyph glyph-name="GLizhe" unicode="&#x2c39;" horiz-adv-x="568" 
d="M283 427q-24 0 -24 -16q0 -12 41 -112q7 -6 15 -6q9 0 16 7q6 6 22 53q18 49 18 58q0 16 -24 16h-64zM271 227q0 28 -20 28q-4 0 -35 -19q-32 -18 -50 -18q-47 0 -75 34q-28 32 -28 79q0 77 52 108q20 12 51 17.5t73 5.5h151q88 0 126 -21q51 -30 51 -111q0 -48 -27 -79
q-29 -33 -76 -33q-17 0 -47 18q-31 19 -37 19q-19 0 -19 -28v-140q0 -17 17 -40q20 -22 37 -23v-24h-199v24q19 1 37 23q18 21 18 40v140zM184 419q-20 0 -35 -29q-13 -23 -13 -47q0 -26 16 -49q18 -25 42 -25t39 18q17 17 17 41q0 91 -66 91zM446 419q-65 0 -65 -91
q0 -24 16 -41q18 -18 40 -18q24 0 42 25q17 23 17 49q0 25 -13 48q-15 28 -37 28z" />
    <glyph glyph-name="GLinitializhe" unicode="&#x2c3a;" horiz-adv-x="531" 
d="M442 256q-12 0 -34 6q-20 7 -33 7q-24 0 -24 -22q0 -9 66 -111t66 -115q0 -22 -29 -22h-350q-31 0 -31 22q0 16 66 115t66 111q0 22 -23 22q-15 0 -39 -7q-26 -6 -39 -6q-33 0 -61 39q-24 36 -24 71q0 45 43 73q36 23 87 23h259q47 0 86 -24q44 -27 44 -72q0 -40 -26 -74
q-29 -36 -70 -36zM415 423q-23 0 -40 -29q-17 -28 -17 -50q0 -43 38 -43q25 0 50 20q24 21 24 45q0 57 -55 57zM262 430q-36 0 -36 -29q0 -11 22 -46q22 -36 29 -36q14 0 27 25q28 26 28 58q0 28 -36 28h-34zM143 423q-57 0 -57 -57q0 -25 26 -46q24 -19 50 -19q37 0 37 43
q0 23 -16 50q-17 29 -40 29zM279 234q-11 0 -47 -74q-35 -73 -35 -92q0 -27 24 -27h115q23 0 23 27q0 18 -34 92q-35 74 -46 74z" />
    <glyph glyph-name="GLi" unicode="&#x2c3b;" horiz-adv-x="480" 
d="M459 436q0 -19 -102 -152q0 -2 -0.5 -3t-0.5 -2v-1q0 -10 38 -30q64 -33 64 -120q0 -64 -70 -104q-59 -33 -131 -33q-71 0 -129 33q-69 39 -69 104q0 59 25 88q10 14 46 35q24 15 24 34q-115 122 -115 140q0 28 35 28h359q26 0 26 -17zM344 389q0 17 -21 17h-136
q-20 0 -20 -22q0 -21 35 -59q36 -39 55 -39t35 19q52 61 52 84zM193 244q-18 -14 -32 -38q-15 -26 -15 -46q0 -45 33 -84q34 -40 78 -40q45 0 79 40q35 40 35 84q0 51 -49 79q-24 -11 -65 -47l-29 29q-10 8 -18.5 13.5t-16.5 9.5z" />
    <glyph glyph-name="GLdjervi" unicode="&#x2c3c;" horiz-adv-x="619" 
d="M476 0q5 8 5 26q0 9 -1.5 20t-6.5 25q-5 19 -8 29.5t-4 15.5q-15 81 -53 81q-39 0 -55 -52q-12 -36 -12 -85q0 -6 1.5 -17t1.5 -17q0 -26 -9 -26h-59q-25 0 -25 30q0 5 1 15t1 14q0 133 -75 133q-35 0 -53 -53q-13 -38 -13 -82q0 -9 3 -27q4 -15 4 -26l-1 -4h-68
q-12 0 -12 21q0 38 54 152q57 121 86 121q34 0 72 -65q39 -63 61 -63q25 0 55 47q12 20 20 38t11 35l-39 113q-29 90 -29 105q0 66 31 106q34 46 98 46q29 0 52.5 -6.5t43.5 -18.5q46 -28 46 -83q0 -94 -56 -94q-7 0 -27 5q-10 2 -16.5 3.5t-11.5 1.5q-43 0 -43 -42
q0 -24 68 -193l84 -212q2 -4 2 -8q0 -9 -21 -9h-103zM462 617q-41 0 -41 -58q0 -24 14 -46q15 -23 38 -23q46 0 46 66q0 26 -16 43q-17 18 -41 18z" />
    <glyph glyph-name="GLkako" unicode="&#x2c3d;" horiz-adv-x="305" 
d="M142 10q0 -8 -22 -13q-18 -5 -29 -5q-5 0 -11.5 1t-14.5 3q-20 6 -20 12v139q0 20 19 20h126q21 0 21 39q0 41 -12 46q-5 3 -47 3h-88q-10 0 -10 13v169q0 19 42 19q44 0 44 -19v-130q0 -22 43 -22q7 0 17.5 0.5t24.5 1.5q28 3 42 3q20 0 25 -21q0 -3 0.5 -13.5
t0.5 -27.5q0 -7 -0.5 -17t-0.5 -24v-41q0 -4 -6 -4h-126q-20 0 -20 -71v-12.5t1 -18.5q0 -10 0.5 -17.5t0.5 -12.5z" />
    <glyph glyph-name="GLljudie" unicode="&#x2c3e;" horiz-adv-x="559" 
d="M406 -13q-47 0 -72 44q-19 36 -19 87q0 6 1.5 18t1.5 18q0 31 -37 31q-31 0 -31 -20q0 -14 6 -41q6 -29 6 -42q0 -47 -31 -66q-23 -15 -75 -15q-46 0 -83 26q-40 28 -40 75q0 45 39 75q39 28 83 28q11 0 29 -3q-52 71 -52 148q0 48 32 86q34 37 81 37q162 0 162 -141
q0 -20 -7 -52q-6 -33 -6 -51q0 -42 28 -42q5 0 11.5 2.5t11.5 2.5q44 0 75 -32q32 -34 32 -77q0 -48 -51 -75q-41 -21 -95 -21zM266 418q-29 0 -52 -20q-25 -21 -25 -49q0 -50 14 -85q19 -51 58 -51q79 0 79 106q0 99 -74 99zM418 167q-32 0 -32 -59v-16q0 -59 38 -59
q49 0 49 60q0 74 -55 74zM171 175q-55 0 -55 -91q0 -47 33 -47q53 0 53 86q0 52 -31 52z" />
    <glyph glyph-name="GLmyslite" unicode="&#x2c3f;" horiz-adv-x="825" 
d="M832 347q0 -46 -35 -83q-34 -37 -80 -37q-42 0 -82 25q-46 28 -46 68l1 1q-3 39 19 73q2 38 -77 38q-18 0 -33 -9q-18 -11 -18 -28v-103q6 -12 51 -67q73 0 121 -24q62 -32 62 -97q0 -40 -33 -73q-34 -32 -74 -32q-53 0 -102 29q-56 33 -56 83l2 1q1 45 47 99
q-45 72 -66 72q-15 0 -38 -29l-29 -43q48 -53 48 -100q0 -50 -55 -83q-47 -29 -101 -29q-39 0 -74 32q-33 33 -33 73q0 66 62 97q48 24 121 24l21.5 27.5l29.5 39.5v103q0 37 -58 37q-72 0 -70 -38q19 -29 19 -74q0 -37 -47 -67q-43 -26 -81 -26q-47 0 -81 37t-34 83
q0 115 149 115h501q149 0 149 -115zM746 326q0 34 -19 56q-21 23 -52 23q-24 0 -38 -25q-12 -21 -12 -46q0 -18 19 -40q18 -21 36 -21q66 0 66 53zM632 127q0 68 -85 68q-23 0 -36 -27q-12 -23 -12 -46t23 -41q22 -18 47 -18q27 0 44 20q19 21 19 44zM241 335q0 26 -12 46
q-14 24 -38 24q-32 0 -52 -23q-19 -22 -19 -56q0 -53 66 -53q19 0 37 21t18 41zM366 122q0 22 -12 45q-13 28 -34 28q-33 0 -59 -16q-28 -18 -28 -52q0 -26 19 -45q20 -19 45 -19q24 0 45 18q24 18 24 41z" />
    <glyph glyph-name="GLnashi" unicode="&#x2c40;" horiz-adv-x="496" 
d="M152 28q40 0 40 28v132q0 21 -33 21q-37 0 -37 -38v-8t1 -13q0 -8 0.5 -13.5t0.5 -10.5q0 -12 -46 -12q-41 0 -41 9v88q0 28 38 28q12 0 35 -3q12 -1 21 -1.5t14 -0.5q47 0 47 37v163q0 28 30 28h112q65 0 106 -28q50 -33 50 -93q0 -66 -42 -93q-27 -18 -85 -24
q-55 -6 -69 -16q-16 -13 -16 -62q0 -8 0.5 -20t0.5 -29q1 -16 1.5 -28t0.5 -21q0 -48 -28 -48h-120q-24 0 -24 -45v-10t1 -11q0 -7 0.5 -11t0.5 -6q0 -8 -46 -8q-41 0 -41 7v90q0 23 27 23h51q17 -1 29.5 -1h20.5zM334 422q-55 0 -55 -91q0 -86 66 -86q30 0 47 30
q15 25 15 58q0 35 -18 61q-19 28 -55 28z" />
    <glyph glyph-name="GLonu" unicode="&#x2c41;" horiz-adv-x="382" 
d="M173 1q-54 0 -89 19q-46 22 -46 72q0 51 33 80q31 27 84 27q8 0 19 -1.5t25 -6.5q28 -7 45 -7q23 0 37.5 16t14.5 40q0 20 -15 35q-14 17 -33 17q-11 0 -40 -8q-24 -7 -39 -7q-46 0 -83 21q-44 26 -44 68q0 45 45 77q40 28 89 28q111 0 158 -62q42 -54 42 -169
q0 -105 -47 -169q-54 -70 -156 -70zM195 431q-28 0 -50 -19q-24 -20 -24 -47q0 -29 25 -45q21 -15 51 -15q28 0 51 15q24 18 24 46q0 65 -77 65zM199 165q-84 0 -84 -58q0 -30 31 -46q25 -14 57 -14q23 0 41 18q16 17 16 41q0 25 -18 42q-20 17 -43 17z" />
    <glyph glyph-name="GLpokoji" unicode="&#x2c42;" horiz-adv-x="432" 
d="M62 202v1q-5 -1 -18 -1q-21 0 -27 6q-9 6 -9 27q0 25 14 31q6 3 35 3q24 0 24 22v127q0 35 31 35h246q73 0 73 -75q0 -62 -21 -108q-27 -63 -80 -63q-45 0 -72 47q-23 41 -23 87q0 65 -27 65q-17 0 -29 -25v-361q0 -19 -50 -19q-48 0 -48 20v158q0 21 -19 24v-1zM308 413
q-21 0 -33 -22q-10 -20 -10 -41q0 -23 13 -54q16 -34 38 -34q21 0 35 33q9 25 9 52q0 66 -52 66z" />
    <glyph glyph-name="GLritsi" unicode="&#x2c43;" horiz-adv-x="304" 
d="M60 -1q-26 0 -26 25v421q0 17 52 17q28 0 36 -12q4 -7 4 -39v-123q0 -20 36 -21v5l-12 1l1 -1l-2 -1l1 -3q7 1 14.5 1h15.5h27q87 0 87 -136q0 -134 -113 -134h-121zM166 233q-40 0 -40 -36v-126q0 -29 37 -29q40 0 54 30q8 21 8 66q0 47 -7 65q-14 30 -52 30z" />
    <glyph glyph-name="GLslovo" unicode="&#x2c44;" horiz-adv-x="474" 
d="M466 305q0 -42 -29 -71q-12 -12 -54 -38q-29 -18 -29 -34v-1q0 -1 0.5 -1.5t0.5 -1.5q110 -120 110 -141q0 -16 -28 -16h-365q-36 0 -36 27q0 18 117 134v7q0 12 -27 29q-37 22 -48 35q-27 30 -27 79q0 67 73 112q64 38 134 38q78 0 138 -39q70 -43 70 -118zM375 290
q0 54 -31 88q-30 33 -85 33q-52 0 -84 -26q-33 -29 -33 -80q0 -22 17 -48q18 -28 40 -28q32 0 65 40q38 -38 69 -47q42 15 42 68zM351 64q0 21 -33 60t-54 39q-20 0 -57 -37q-37 -36 -37 -55q0 -22 21 -22h140q20 0 20 15z" />
    <glyph glyph-name="GLtvrido" unicode="&#x2c45;" horiz-adv-x="736" 
d="M586 172q-54 0 -93 36q-38 34 -38 89q0 17 13 46q14 28 14 47q0 37 -95 37q-93 0 -93 -36q0 -20 14 -48q13 -29 13 -46q0 -54 -38 -89q-39 -36 -92 -36q-61 0 -110 38q-51 40 -51 102q0 92 51 125q38 25 137 25h340q97 0 137 -25q51 -33 51 -125q0 -59 -51 -101
q-48 -39 -109 -39zM576 418q-66 0 -66 -101q0 -33 16 -63q18 -33 51 -33t51 31q16 25 16 62q0 104 -68 104zM200 418q-70 0 -70 -104q0 -33 16 -62q19 -31 52 -31t51 33q16 30 16 63q0 101 -65 101z" />
    <glyph glyph-name="GLuku" unicode="&#x2c46;" horiz-adv-x="670" 
d="M450 1q-24 0 -66 16t-66 16q-26 0 -70 -16q-43 -17 -69 -17q-50 0 -93 21q-53 27 -53 70q0 109 160 109q5 0 15 -1t15 -1q19 0 33 11.5t14 30.5q0 34 -49 34q-6 0 -14.5 -1t-19.5 -3q-23 -3 -34 -3q-55 0 -89 24q-41 27 -41 78q0 48 56 74q41 19 99 19q22 0 43 -3t44 -8
q35 -25 60 -25q21 0 65 18q45 18 69 18q64 0 99 -42q32 -36 32 -104q0 -44 28 -50l43 -4q29 -5 29 -24t-34 -25q-42 -8 -48 -18q-10 -13 -10 -55q0 -58 -44 -99q-44 -40 -104 -40zM417 420q-23 0 -48 -16q-28 -19 -28 -39q0 -36 13.5 -49.5t48.5 -13.5l2 -1q34 0 60 16
q30 18 30 52q0 51 -78 51zM480 294q-9 0 -26 -5q-11 -4 -17 -6.5t-8 -2.5l-47 -8q-28 -7 -28 -32q0 -51 113 -51q37 0 37 51q0 54 -24 54zM177 424q-73 0 -73 -65q0 -68 89 -68q68 0 68 74q0 59 -84 59zM422 170q-79 0 -79 -56q0 -25 30 -46q28 -20 53 -20q28 0 48 19
q21 21 21 47q0 33 -21 47q-17 9 -52 9zM199 183q-77 0 -77 -68q0 -30 25 -49q25 -18 54 -18q18 0 43 23q24 24 24 43q0 31 -19 50t-50 19z" />
    <glyph glyph-name="GLfritu" unicode="&#x2c47;" horiz-adv-x="603" 
d="M574 205q0 -24 -15 -54q-18 -34 -38 -34q-11 0 -25 14q-35 33 -35 108q0 16 -26 16q-15 0 -15 -8v-224q0 -19 -19 -19h-180q-20 0 -20 19v224q0 8 -14 8q-26 0 -26 -16q0 -41 -13 -74q-17 -48 -46 -48q-23 0 -39 34q-15 30 -15 54q0 40 9 55q12 18 51 18h82q14 0 14 33
q0 11 -3 43q-1 16 -1.5 27.5t-0.5 19.5q0 57 28 57h168q26 0 26 -34v-32.5t-1 -91.5v5q0 -27 13 -27h82q37 0 50 -19q9 -14 9 -54zM528 208q0 37 -24 37t-24 -26q0 -14 7 -27q9 -17 21 -17q20 0 20 33zM351 408q0 15 -14 15h-52q-14 0 -14 -17v-15t1 -20q0 -12 0.5 -21
t0.5 -14q0 -6 -1 -17t-1 -17q0 -20 17 -20h45q18 0 18 17v109zM355 233q0 15 -17 15h-54q-17 0 -17 -15v-160q0 -18 23 -18h42q23 0 23 18v160zM141 219q0 26 -23 26q-24 0 -24 -37q0 -33 20 -33q12 0 20 17q7 13 7 27z" />
    <glyph glyph-name="GLha" unicode="&#x2c48;" horiz-adv-x="524" 
d="M377 -1q-34 0 -56 25q-23 28 -23 60q0 9 3 24q3 16 3 24q0 32 -24 32q-39 0 -108 -83q-67 -82 -99 -82q-11 0 -11 10q0 11 23 53q22 40 22 176q0 93 -18 174q-2 8 -3 12.5t-1 5.5q0 32 65 32q69 0 69 -39q0 -24 -6 -68.5t-17 -110.5q-2 -11 -3 -18t-1 -10q0 -34 27 -34
q15 0 82 32q67 33 99 33q54 0 88 -26q35 -28 35 -82q0 -60 -43 -100q-41 -40 -103 -40zM390 194q-25 0 -39 -24q-14 -20 -14 -45q0 -28 17 -46t45 -18q23 0 37 24q11 20 11 46q0 24 -17 44q-16 19 -40 19z" />
    <glyph glyph-name="GLotu" unicode="&#x2c49;" horiz-adv-x="612" 
d="M387 4q0 -21 30 -34q7 -4 12.5 -6t9.5 -4t7 -4q0 -24 -33 -24q-13 0 -26.5 2.5t-28.5 7.5q-33 10 -46 28l-8 22t-9 22q-12 30 -28 30q-5 0 -10 -1.5t-13 -3.5q-13 -4 -22 -4q-65 0 -115 65q-45 61 -45 129q0 114 82 177q75 57 193 57q100 0 183 -55q91 -63 91 -160
q0 -64 -30 -115q-33 -54 -91 -72l-27 -8.5t-19 -5.5q-9 -3 -15 -4q-42 -17 -42 -39zM338 408q-42 0 -42 -59q0 -20 11 -34q12 -16 31 -16q41 0 41 50q0 59 -41 59zM433 414q-19 0 -24 -38q-8 -61 -12 -74q-15 -43 -60 -55q-78 21 -78 91q0 12 4 27q2 8 3 15t1 12
q0 34 -25 34q-32 0 -70 -83q-22 -48 -22 -108q0 -61 23 -109q30 -57 88 -57q18 0 34 13q17 12 17 29q0 28 -59 43q2 8 14 13q10 7 20 7q56 0 77 -27q7 -9 20 -48q8 -26 33 -26q49 0 78 60q23 49 23 104q0 46 -21 105q-27 72 -64 72z" />
    <glyph glyph-name="GLpe" unicode="&#x2c4a;" horiz-adv-x="458" 
d="M404 -7q-32 0 -32 19v381q0 32 -19 32h-91q-21 0 -21 -31v-382q0 -21 -84 -21q-69 0 -96 15q-40 21 -40 84t30 83q21 14 90 14q34 0 34 11v242q0 6 12 20h236q15 0 15 -26v-422q0 -19 -34 -19zM175 134q0 23 -34 23q-33 0 -43 -18q-8 -14 -8 -46q0 -65 54 -65q31 0 31 18
v88z" />
    <glyph glyph-name="GLshta" unicode="&#x2c4b;" horiz-adv-x="551" 
d="M404 245q0 -4 17 -19q21 -18 31 -37q17 -31 17 -70q0 -58 -61 -91q-50 -27 -113 -27q-64 0 -113 27q-61 33 -61 92q0 60 19 82l26 21q20 17 20 22q0 17 -60 25l-54.5 8t-23.5 5v166q0 12 43 12q41 0 41 -10v-141q0 -18 55 -18q65 0 65 22v138q0 10 42 10q43 0 43 -11
v-139q0 -20 65 -20q44 0 56 16v142q0 11 41 11q43 0 43 -13v-166q-6 -3 -78 -12q-60 -9 -60 -25zM294 243q-81 0 -81 -113q0 -88 83 -88q82 0 82 87q0 114 -84 114z" />
    <glyph glyph-name="GLtsi" unicode="&#x2c4c;" horiz-adv-x="555" 
d="M330 0q-56 0 -89 84q-9 25 -33 133l-9 34q-10 16 -35 16q-11 0 -26 -4q-9 -2 -15 -3.5t-11 -1.5q-33 0 -61 34t-28 68q0 63 42 86q28 16 96 16q79 0 105 -29q9 -10 12 -74q2 -44 5 -74.5t6 -49.5q12 -74 45 -112q18 -21 28 -21q2 0 6 2q42 19 63 138q6 40 9.5 83t3.5 89
q0 33 35 33q72 0 72 -29q0 -53 -89 -233q-92 -185 -132 -185zM143 428q-24 0 -41 -26q-14 -23 -14 -48q0 -22 16 -42q15 -20 36 -20q22 0 36 21q12 19 12 42q0 28 -10 47q-12 26 -35 26z" />
    <glyph glyph-name="GLchrivi" unicode="&#x2c4d;" horiz-adv-x="572" 
d="M31 198l34 44.5t14 19.5q26 38 40 70q6 17 16.5 44l24.5 62q10 24 44 24q57 0 57 -20q0 -10 -22 -46q-21 -36 -21 -43q0 -24 50 -24h99q35 0 35 27q0 15 -12 42t-12 39q0 24 61 24q25 0 35 -4q12 -8 12 -24q0 -87 26 -144q4 -8 11 -20t19 -29q20 -29 28 -49q-8 -4 -37 -4
h-18t-30 2v1q-93 0 -93 -45q0 -11 8 -32t8 -29q0 -36 -35 -62q-31 -22 -70 -22q-43 0 -74 24q-35 27 -35 67q0 17 19 43q20 27 20 33q0 22 -45 22h-144q-15 0 -13 9zM369 307q-41 0 -41 -18q0 3 -29 -75h113q33 0 33 18q0 -4 -11 31q-13 37 -16 40q-6 4 -49 4zM280 306
q-3 0 -8 -2t-8 -2h-7.5t-10.5 2q-11 2 -17 0q-6 2 -13 3.5t-15 4.5q-4 -8 -30 -47q-25 -39 -25 -41q0 -12 24 -12q5 0 14.5 0.5t14.5 0.5q9 0 22 -1t18 -1q28 0 45 33q14 28 14 42q0 20 -18 20zM300 183q-25 0 -46 -24t-21 -50q0 -57 64 -57q27 0 43 22q16 19 16 46
q0 23 -17 43t-39 20z" />
    <glyph glyph-name="GLsha" unicode="&#x2c4e;" horiz-adv-x="611" 
d="M86 -1q-19 0 -19 22v438q9 3 41 3q35 0 43 -4v-399q0 -31 29 -31h69q14 0 25.5 9.5t11.5 23.5v394q7 7 42 7q36 0 44 -8v-394q0 -14 11 -23.5t25 -9.5h69q29 0 29 31v400q9 4 43 4q33 0 42 -3v-440q0 -20 -19 -20h-486z" />
    </font>
</defs>
</svg>
